470 lines
6.1 KiB
Plaintext
470 lines
6.1 KiB
Plaintext
//TJADB Project
|
|
TITLE:Love You☆Don-chan -New Chart-
|
|
TITLEJA:ラブユー☆どんちゃん
|
|
SUBTITLE:--Keiichi Okabe feat. Kaori Murosawa
|
|
SUBTITLEJA:新譜面
|
|
BPM:130
|
|
WAVE:Love You Don-chan.ogg
|
|
OFFSET:-3.724
|
|
DEMOSTART:84.026
|
|
|
|
//Shinuchi: 5220/3990/2430/1950/2220
|
|
|
|
COURSE:Edit
|
|
LEVEL:8
|
|
BALLOON:
|
|
SCOREINIT:700,2220
|
|
SCOREDIFF:188
|
|
|
|
#START
|
|
100000100000201001100100,
|
|
000000000100200001100100,
|
|
100000100000201001100100,
|
|
000000000100200001100100,
|
|
|
|
1,
|
|
000002200200002002200200,
|
|
100002100100200001100100,
|
|
000001100100201001100100, //8
|
|
|
|
100002100100200001100100,
|
|
000001100100201001100200,
|
|
100001200100200001100100,
|
|
000001100100201001100200,
|
|
|
|
100001200100200100000500,
|
|
000000000000000000000000000000000000000008000000,
|
|
100200100200201001100100,
|
|
000000000101200002200200, //16
|
|
|
|
#GOGOSTART
|
|
100001100200100002200200,
|
|
100002200200102100200200,
|
|
002200200100000100200100,
|
|
000100200102100100200200,
|
|
|
|
100002100200100001200200,
|
|
100002100200102100200200,
|
|
001200200100000100200100,
|
|
000100200102100100200200, //24
|
|
|
|
100002100200100201200200,
|
|
100002100200102100200200,
|
|
001200200100000100200100,
|
|
000100200102100100200200,
|
|
|
|
100002100200100201200200,
|
|
100002100200102100200200,
|
|
001200200100000100200100,
|
|
001200200101200000400000, //32
|
|
#GOGOEND
|
|
|
|
100200100200201001100100,
|
|
000000000101200002200200,
|
|
100002100200000001200100,
|
|
000102100100000102200000,
|
|
|
|
100002200200000002200100,
|
|
000102100100000102200200,
|
|
100001200200000001200100,
|
|
000102100100000102200000,
|
|
|
|
100002200100000100200500,
|
|
000000000000000000000000000000000000000008000000,
|
|
100200100200201001100100,
|
|
000000000101200002200200, //44
|
|
|
|
#GOGOSTART
|
|
100002100200100001200200,
|
|
100002100200102102100200,
|
|
001200200100000100200100,
|
|
000100200102100100200200,
|
|
|
|
100002100200100201200200,
|
|
100002100200102102100200,
|
|
001200200100000100200100,
|
|
000100200102100100200200, //52
|
|
|
|
100002100200100201200200,
|
|
100201200200102102100200,
|
|
001200200100000102100200,
|
|
001200200102100100200200,
|
|
|
|
100002100200100201200200,
|
|
100201200200102102100200,
|
|
001200200100000102100200,
|
|
001200200101200000400000, //60
|
|
#GOGOEND
|
|
|
|
0,
|
|
#BARLINEOFF
|
|
0, //62
|
|
#END
|
|
|
|
|
|
COURSE:Oni
|
|
LEVEL:8
|
|
BALLOON:
|
|
SCOREINIT:610,1960
|
|
SCOREDIFF:160
|
|
|
|
#START
|
|
1020102021011010,
|
|
0000001120022020,
|
|
1020102021011010,
|
|
0000001120022020,
|
|
|
|
1,
|
|
0002102002021020,
|
|
1002101020021010,
|
|
0012101021011020, //8
|
|
|
|
1002101020021010,
|
|
0012101021011020,
|
|
1001201020021010,
|
|
0012101021011020,
|
|
|
|
1001202010211050,
|
|
000000000000000000000000000000000000000008000000,
|
|
1020102021011010,
|
|
0000001120012020, //16
|
|
|
|
#GOGOSTART
|
|
1011102011112020,
|
|
1021202012102020,
|
|
0120200000121010,
|
|
0210201210102020,
|
|
|
|
1011102011112020,
|
|
1021202012102020,
|
|
0120200000121010,
|
|
0210202120102020, //24
|
|
|
|
1011202012112020,
|
|
1021202012102020,
|
|
0210200000121010,
|
|
0120202120102020,
|
|
|
|
1011202012112020,
|
|
1021202012102020,
|
|
0210200000121010,
|
|
0120201120004000, //32
|
|
#GOGOEND
|
|
|
|
1020102021011010,
|
|
0000001120012020,
|
|
1001202000211010,
|
|
0011101101112020,
|
|
|
|
1001202000211010,
|
|
0011101102112020,
|
|
1002102000211010,
|
|
0012101101112020,
|
|
|
|
1002102000211050,
|
|
000000000000000000000000000000000000000008000000,
|
|
1020102021011010,
|
|
0000001120012020, //44
|
|
|
|
#GOGOSTART
|
|
1011202212112020,
|
|
1021202012212020,
|
|
0120200000121010,
|
|
0210202121112020,
|
|
|
|
1011202212112020,
|
|
1021202012212020,
|
|
0120200000121010,
|
|
0210202121112020, //52
|
|
|
|
1011202112112020,
|
|
1021202021121020,
|
|
0210200000121010,
|
|
0120202121112020,
|
|
|
|
1011202112112020,
|
|
1021202021121020,
|
|
0210200000121010,
|
|
0120201120004000, //60
|
|
#GOGOEND
|
|
|
|
0,
|
|
#BARLINEOFF
|
|
0, //62
|
|
#END
|
|
|
|
|
|
COURSE:Hard
|
|
LEVEL:6
|
|
BALLOON:
|
|
SCOREINIT:560,2450
|
|
SCOREDIFF:158
|
|
|
|
#START
|
|
1000100020011010,
|
|
0000001020022020,
|
|
1000100020011010,
|
|
0000001020022020,
|
|
|
|
1,
|
|
0002202002022000,
|
|
1000101020011010,
|
|
0011101020000000, //8
|
|
|
|
1000101020011010,
|
|
0011101020000000,
|
|
1000101020011010,
|
|
0011101020000000,
|
|
|
|
1000102000222050,
|
|
000000000000000000000000000000000000000008000000,
|
|
1000100020011010,
|
|
0000001110002000, //16
|
|
|
|
#GOGOSTART
|
|
1011100011111000,
|
|
1011100011102000,
|
|
1011100000102010,
|
|
0011100011102000,
|
|
|
|
1011100011111000,
|
|
1011100011102000,
|
|
1011100000102010,
|
|
0011100011102000,
|
|
|
|
1011100011111000,
|
|
1011101011102000,
|
|
1011100000102010,
|
|
0011100011102000,
|
|
|
|
1011100011111000,
|
|
1011101011102000,
|
|
1011100000102010,
|
|
0011100030004000, //32
|
|
#GOGOEND
|
|
|
|
1000100020011010,
|
|
0000001020022020,
|
|
1001101000022020,
|
|
0011101010102000,
|
|
|
|
1001102000022020,
|
|
0011101010102000,
|
|
1001102000022020,
|
|
0011101010202000,
|
|
|
|
1001101000222050,
|
|
000000000000000000000000000000000008000000000000,
|
|
1000100020011010,
|
|
0000001110002000, //44
|
|
|
|
#GOGOSTART
|
|
1011101011111000,
|
|
1011101011102000,
|
|
1011100000102010,
|
|
0011100011102000,
|
|
|
|
1011101011111000,
|
|
1011101011102000,
|
|
1011100000102010,
|
|
0011100011102000, //52
|
|
|
|
1011102011111020,
|
|
1011102011102000,
|
|
1011100000102010,
|
|
0011100011102000,
|
|
|
|
1011102011111020,
|
|
1011102011102000,
|
|
1011100000102010,
|
|
0011100040004000, //60
|
|
#GOGOEND
|
|
|
|
0,
|
|
#BARLINEOFF
|
|
0, //62
|
|
#END
|
|
|
|
|
|
COURSE:Normal
|
|
LEVEL:6
|
|
BALLOON:
|
|
SCOREINIT:770,4060
|
|
SCOREDIFF:245
|
|
|
|
#START
|
|
10102001,
|
|
00012000,
|
|
10102001,
|
|
00012000,
|
|
|
|
1,
|
|
0,
|
|
10120001,
|
|
01011020, //8
|
|
|
|
10210001,
|
|
01011020,
|
|
10120001,
|
|
01011020,
|
|
|
|
10210105,
|
|
000000000000000000000000000000000008000000000000,
|
|
10102001,
|
|
00012000, //16
|
|
|
|
#GOGOSTART
|
|
10101011,
|
|
01202000,
|
|
10210111,
|
|
01001020,
|
|
|
|
10101011,
|
|
01202000,
|
|
10210111,
|
|
01001020, //24
|
|
|
|
11101011,
|
|
01202000,
|
|
10210111,
|
|
01201020,
|
|
|
|
11101011,
|
|
01202000,
|
|
10210111,
|
|
01203040, //32
|
|
#GOGOEND
|
|
|
|
10102001,
|
|
00012000,
|
|
10120021,
|
|
01110120,
|
|
|
|
10210021,
|
|
01110120,
|
|
10120021,
|
|
01110120,
|
|
|
|
10210125,
|
|
000000000000000000000000000000000008000000000000,
|
|
10102001,
|
|
00012000, //44
|
|
|
|
#GOGOSTART
|
|
11101011,
|
|
01201020,
|
|
10210111,
|
|
01201020,
|
|
|
|
11101011,
|
|
01201020,
|
|
10210111,
|
|
01201020, //52
|
|
|
|
11101011,
|
|
01201020,
|
|
10210121,
|
|
01201020,
|
|
|
|
11101011,
|
|
01201020,
|
|
10210121,
|
|
01203030, //60
|
|
#GOGOEND
|
|
|
|
0,
|
|
#BARLINEOFF
|
|
0, //62
|
|
#END
|
|
|
|
|
|
COURSE:Easy
|
|
LEVEL:4
|
|
BALLOON:
|
|
SCOREINIT:570,5370
|
|
SCOREDIFF:200
|
|
|
|
#START
|
|
10102001,
|
|
02,
|
|
10102001,
|
|
02,
|
|
|
|
1,
|
|
0,
|
|
10110000,
|
|
01011020, //8
|
|
|
|
10110000,
|
|
01011020,
|
|
10110000,
|
|
01011020,
|
|
|
|
10110105,
|
|
000000000000000000000000000000000008000000000000,
|
|
10102001,
|
|
0, //16
|
|
|
|
#GOGOSTART
|
|
10011020,
|
|
1110,
|
|
10011020,
|
|
1,
|
|
|
|
10011020,
|
|
1110,
|
|
10011020,
|
|
1, //24
|
|
|
|
10011020,
|
|
11101000,
|
|
10011020,
|
|
1,
|
|
|
|
10011020,
|
|
11101000,
|
|
10011020,
|
|
1033, //32
|
|
#GOGOEND
|
|
|
|
10102001,
|
|
02,
|
|
10110020,
|
|
01011020,
|
|
|
|
10110020,
|
|
01011020,
|
|
10110020,
|
|
01011020,
|
|
|
|
10110105,
|
|
000000000000000000000000000000000008000000000000,
|
|
3,
|
|
0, //44
|
|
|
|
#GOGOSTART
|
|
10011020,
|
|
11102000,
|
|
10011020,
|
|
1,
|
|
|
|
10011020,
|
|
11102000,
|
|
10011020,
|
|
1022, //52
|
|
|
|
10011020,
|
|
11102000,
|
|
10011020,
|
|
1022,
|
|
|
|
10011020,
|
|
11102000,
|
|
10011020,
|
|
11103030, //60
|
|
#GOGOEND
|
|
|
|
0,
|
|
#BARLINEOFF
|
|
0, //62
|
|
#END |