388 lines
4.6 KiB
Plaintext
388 lines
4.6 KiB
Plaintext
//TJADB Project
|
|
TITLE:Ashura-chan
|
|
TITLEJA:阿修羅ちゃん
|
|
SUBTITLE:--Ado
|
|
SUBTITLEJA:Ado
|
|
BPM:156
|
|
WAVE:Ashura-chan.ogg
|
|
OFFSET:-0.604
|
|
DEMOSTART:45.381
|
|
|
|
COURSE:Oni
|
|
LEVEL:7
|
|
BALLOON:11,11,17
|
|
SCOREINIT:2160
|
|
SCOREDIFF:0
|
|
|
|
#START
|
|
#BARLINEOFF
|
|
#MEASURE 2/4
|
|
0,
|
|
#BARLINEON
|
|
#MEASURE 4/4
|
|
3000400120010070,
|
|
00008002,
|
|
2220220202202020,
|
|
1102011010020010, //5
|
|
|
|
0011102010012120,
|
|
1110102010012120,
|
|
1110102010012110,
|
|
1100110010210010,
|
|
|
|
0011102010012120,
|
|
1110102010012120,
|
|
1110102010012110,
|
|
1100110010210050,
|
|
000000000000000000000008000000100000100000200000, //14
|
|
|
|
0010101120102020,
|
|
1010102000111020,
|
|
1010101120102020,
|
|
1010102211101020,
|
|
|
|
1010101120102020,
|
|
1010102000111020,
|
|
1010101120102020,
|
|
1010102011112010, //22
|
|
|
|
1012021000102220,
|
|
1012021000112010,
|
|
1022021000202020,
|
|
1022021000221110,
|
|
|
|
1012021000112220,
|
|
1012021000112020,
|
|
01121121,
|
|
1101011010202020, //30
|
|
|
|
#GOGOSTART
|
|
3000300030001022,
|
|
1011102020101010,
|
|
3000300040001022,
|
|
1011102020101011,
|
|
|
|
1020202220101011,
|
|
1020202220212010,
|
|
0020101120202010,
|
|
10300222, //38
|
|
|
|
3000300030001022,
|
|
1011102020101010,
|
|
3000300040001022,
|
|
1011102020101011,
|
|
|
|
1020202220101011,
|
|
1020202220212010,
|
|
0020101120202010,
|
|
1303,
|
|
3000400120010070,
|
|
0000
|
|
#GOGOEND
|
|
8001, //48
|
|
|
|
0011102010012120,
|
|
1110102010012120,
|
|
1110102010012110,
|
|
1100110010210010,
|
|
|
|
0011102010012120,
|
|
1110102010012120,
|
|
1110102010012110,
|
|
1100110010210000, //56
|
|
|
|
3004003003004000,
|
|
1202021010101200,
|
|
07
|
|
#BPMCHANGE 167.15
|
|
00,
|
|
#BARLINEOFF
|
|
#BPMCHANGE 147
|
|
0800,
|
|
0, //61
|
|
#END
|
|
|
|
|
|
COURSE:Hard
|
|
LEVEL:4
|
|
BALLOON:7,13,9,14
|
|
SCOREINIT:3740
|
|
SCOREDIFF:0
|
|
|
|
#START
|
|
#BARLINEOFF
|
|
#MEASURE 2/4
|
|
0,
|
|
#BARLINEON
|
|
#MEASURE 4/4
|
|
3000400030030090,
|
|
009800,
|
|
0,
|
|
1101011010000010, //5
|
|
|
|
0010102010010000,
|
|
1010202010010000,
|
|
1010102010010000,
|
|
2000200010010010,
|
|
|
|
0010102010010000,
|
|
1010202010010000,
|
|
1010102010010000,
|
|
2000200010010030,
|
|
00000112, //14
|
|
|
|
01112122,
|
|
11120112,
|
|
01112122,
|
|
11120112,
|
|
|
|
01112122,
|
|
11120112,
|
|
01112122,
|
|
11120000, //22
|
|
|
|
1001001000102020,
|
|
500000000000000000000000000008000000000000000000,
|
|
1001001000102020,
|
|
500000000000000000000000000008000000000000000000,
|
|
|
|
1001001000102020,
|
|
500000000000000000000000000008000000000000900000,
|
|
000000000000000000000000000000000090000000000008,
|
|
0, //30
|
|
|
|
#GOGOSTART
|
|
30303012,
|
|
11120111,
|
|
30304012,
|
|
11120121,
|
|
|
|
12220121,
|
|
1020202010010050,
|
|
000000000000000000000000000000000000000008000000,
|
|
10100222, //38
|
|
|
|
30303012,
|
|
11120111,
|
|
30304012,
|
|
11120121,
|
|
|
|
12220121,
|
|
1020202010010050,
|
|
000000000000000000000000000000000000000008000000,
|
|
1103,
|
|
3000400030030070,
|
|
0000
|
|
#GOGOEND
|
|
8001, //48
|
|
|
|
0010102010010000,
|
|
1010202010010000,
|
|
1010102010010000,
|
|
2000200010010010,
|
|
|
|
0010102010010000,
|
|
1010202010010000,
|
|
1010102010010000,
|
|
2000200010010000, //56
|
|
|
|
3003003003003000,
|
|
500000000000000000000000000000000000000000000008,
|
|
07
|
|
#BPMCHANGE 167.15
|
|
00,
|
|
#BARLINEOFF
|
|
#BPMCHANGE 147
|
|
0800,
|
|
0, //61
|
|
#END
|
|
|
|
|
|
COURSE:Normal
|
|
LEVEL:3
|
|
BALLOON:5,11,6,10
|
|
SCOREINIT:7450
|
|
SCOREDIFF:0
|
|
|
|
#START
|
|
#BARLINEOFF
|
|
#MEASURE 2/4
|
|
0,
|
|
#BARLINEON
|
|
#MEASURE 4/4
|
|
30303009,
|
|
009800,
|
|
0,
|
|
10001001, //5
|
|
|
|
0120,
|
|
1110,
|
|
1110,
|
|
20201001,
|
|
|
|
0120,
|
|
1110,
|
|
1110,
|
|
20201003,
|
|
00000001, //14
|
|
|
|
0110,
|
|
10110001,
|
|
0110,
|
|
20220001,
|
|
|
|
0110,
|
|
10110001,
|
|
0110,
|
|
20220000, //22
|
|
|
|
10010010,
|
|
500000000000000000000000000008000000000000000000,
|
|
10010010,
|
|
500000000000000000000000000008000000000000000000,
|
|
|
|
10010010,
|
|
500000000000000000000000000008000000000000900000,
|
|
000000000000000000000000000000000090000000000008,
|
|
0, //30
|
|
|
|
#GOGOSTART
|
|
3330,
|
|
10110000,
|
|
3340,
|
|
10110011,
|
|
|
|
10000022,
|
|
20001005,
|
|
000000000000000000000000000000000000000000000008,
|
|
0100, //38
|
|
|
|
3330,
|
|
10110000,
|
|
3340,
|
|
10110011,
|
|
|
|
10000022,
|
|
20001005,
|
|
000000000000000000000000000000000000000000000008,
|
|
0100,
|
|
30303007,
|
|
0000
|
|
#GOGOEND
|
|
8001, //48
|
|
|
|
0120,
|
|
1110,
|
|
1110,
|
|
20201001,
|
|
|
|
0120,
|
|
1110,
|
|
1110,
|
|
2210, //56
|
|
|
|
30030030,
|
|
500000000000000000000000000000000000000000000008,
|
|
07
|
|
#BPMCHANGE 167.15
|
|
00,
|
|
#BARLINEOFF
|
|
#BPMCHANGE 147
|
|
0800,
|
|
0, //61
|
|
#END
|
|
|
|
|
|
COURSE:Easy
|
|
LEVEL:2
|
|
BALLOON:5,9,5,8
|
|
SCOREINIT:14170
|
|
SCOREDIFF:0
|
|
|
|
#START
|
|
#BARLINEOFF
|
|
#MEASURE 2/4
|
|
0,
|
|
#BARLINEON
|
|
#MEASURE 4/4
|
|
30003009,
|
|
009800,
|
|
0,
|
|
500000000000000000000008000000000000000000100000, //5
|
|
|
|
01,
|
|
1,
|
|
11,
|
|
20000001,
|
|
|
|
01,
|
|
1,
|
|
11,
|
|
20000003,
|
|
00000001, //14
|
|
|
|
01,
|
|
10000001,
|
|
01,
|
|
20000001,
|
|
|
|
01,
|
|
10000001,
|
|
01,
|
|
2, //22
|
|
|
|
10010000,
|
|
500000000000000000000000000008000000000000000000,
|
|
10010000,
|
|
500000000000000000000000000008000000000000000000,
|
|
|
|
10010000,
|
|
500000000000000000000008000000000000000000900000,
|
|
000000000000000000000000000000000090000000000008,
|
|
0, //30
|
|
|
|
#GOGOSTART
|
|
33,
|
|
1100,
|
|
34,
|
|
1100,
|
|
|
|
1,
|
|
20000005,
|
|
0,
|
|
000000000008000000000000000000000000000000000000, //38
|
|
|
|
33,
|
|
1100,
|
|
34,
|
|
1100,
|
|
|
|
1,
|
|
20000005,
|
|
0,
|
|
000000000008000000000000000000000000000000000000,
|
|
30003007,
|
|
0000
|
|
#GOGOEND
|
|
8001, //48
|
|
|
|
01,
|
|
1,
|
|
11,
|
|
20000001,
|
|
|
|
01,
|
|
1,
|
|
11,
|
|
22, //56
|
|
|
|
600000000000000000000000000008000000000000000000,
|
|
33,
|
|
07
|
|
#BPMCHANGE 167.15
|
|
00,
|
|
#BARLINEOFF
|
|
#BPMCHANGE 147
|
|
0800,
|
|
0, //61
|
|
#END |