1002 lines
12 KiB
Plaintext
1002 lines
12 KiB
Plaintext
//TJADB Project
|
|
TITLE:Destr0yer
|
|
TITLEJA:Destr0yer
|
|
SUBTITLE:--Sakuzyo feat. Nikki Simmons
|
|
SUBTITLEJA:削除 feat. Nikki Simmons
|
|
BPM:90
|
|
WAVE:Destr0yer.ogg
|
|
OFFSET:-0.536
|
|
DEMOSTART:93.528
|
|
|
|
|
|
COURSE:Edit
|
|
LEVEL:10
|
|
BALLOON:2,23
|
|
SCOREINIT:1230
|
|
SCOREDIFF:0
|
|
|
|
#START
|
|
#SCROLL 12
|
|
#GOGOSTART
|
|
500000000008
|
|
#GOGOEND
|
|
4000,
|
|
|
|
#SCROLL 1
|
|
1111211201112112,
|
|
1111211201112112,
|
|
1221211202012102,
|
|
10202010201010200020001022222222, //5
|
|
|
|
1111211201112112,
|
|
1111211201112112,
|
|
10202010201010200020001022222222,
|
|
10202010201010200020001022222222,
|
|
0002, //10
|
|
|
|
1022002200120022,
|
|
1022002100120022,
|
|
1022002200120022,
|
|
1022002100120122, //14
|
|
|
|
1222002202120222,
|
|
1222002102120222,
|
|
1222022202120222,
|
|
100200200200000200200100000100100100200111100100, //18
|
|
|
|
2,
|
|
2,
|
|
2,
|
|
10000120, //22
|
|
|
|
20202222102022220020222210202222,
|
|
20202222102022220020222210201222,
|
|
10202222102012220020222210201222,
|
|
10222222102212221022122210220000, //26
|
|
|
|
#SCROLL 12
|
|
#GOGOSTART
|
|
500000000008
|
|
#GOGOEND
|
|
4000, //27
|
|
|
|
#SCROLL 1
|
|
100222200222200222100222100100200100222222202020,
|
|
#MEASURE 3/4
|
|
100000222222100000122222000000122200,
|
|
#BARLINEOFF
|
|
#MEASURE 1/4
|
|
#SCROLL 12
|
|
#GOGOSTART
|
|
500000000800, //30
|
|
#GOGOEND
|
|
|
|
#BARLINEON
|
|
#MEASURE 4/4
|
|
#SCROLL 1
|
|
100000202020200000202020100000202020100000202020100000100100202020200000100000200000200000200000,
|
|
#MEASURE 3/4
|
|
100100222222100100122222100000122200,
|
|
#BARLINEOFF
|
|
#MEASURE 1/4
|
|
#SCROLL 12
|
|
#GOGOSTART
|
|
700000800000, //33
|
|
#GOGOEND
|
|
|
|
#BARLINEON
|
|
#MEASURE 4/4
|
|
#SCROLL 1
|
|
100222200222200222100222100100200100222222202020,
|
|
#MEASURE 3/4
|
|
100000122222100000222222100000222100,
|
|
#BARLINEOFF
|
|
#MEASURE 2/4
|
|
#BPMCHANGE 180
|
|
#SCROLL 6
|
|
#GOGOSTART
|
|
508005080050800508000000, //36
|
|
#GOGOEND
|
|
|
|
#BARLINEON
|
|
#MEASURE 4/4
|
|
#BPMCHANGE 90
|
|
#SCROLL 1
|
|
100000202020100000202020100000102020100000202020100000100000100000000000100000100100100000200000,
|
|
100222100222100222100222100222100222000000000000, //38
|
|
|
|
#GOGOSTART
|
|
1022102110221201,
|
|
1022102110221221,
|
|
1022102110221201,
|
|
100200200200200000200200100000200200200200100000100200200000200200200000102020200000100000100000,
|
|
1011201102102011,
|
|
10001010201000101212121211121112, //44
|
|
#GOGOEND
|
|
|
|
100
|
|
#SCROLL 0.8
|
|
2,
|
|
#SCROLL 0.66
|
|
0002,
|
|
#SCROLL 0.57
|
|
0002, //47
|
|
|
|
#MEASURE 1/32
|
|
#BPMCHANGE 45
|
|
#SCROLL 1
|
|
0,
|
|
#SCROLL 1.14
|
|
0,
|
|
#SCROLL 1.30
|
|
0,
|
|
#SCROLL 1.49
|
|
0,
|
|
#SCROLL 1.70
|
|
0,
|
|
#SCROLL 1.94
|
|
0,
|
|
#SCROLL 2.21
|
|
0,
|
|
#SCROLL 2.53
|
|
0, //55
|
|
|
|
#MEASURE 1/64
|
|
#SCROLL 2.88
|
|
0,
|
|
#SCROLL 3.29
|
|
0,
|
|
#SCROLL 3.76
|
|
0,
|
|
#SCROLL 4.29
|
|
0,
|
|
#SCROLL 4.90
|
|
0,
|
|
#SCROLL 5.59
|
|
0,
|
|
#SCROLL 6.38
|
|
0,
|
|
#SCROLL 7.29
|
|
0,
|
|
#SCROLL 8.32
|
|
0,
|
|
#SCROLL 9.50
|
|
0,
|
|
#SCROLL 10.84
|
|
0,
|
|
#SCROLL 12.38
|
|
0,
|
|
#SCROLL 14.13
|
|
0,
|
|
#SCROLL 16.13
|
|
0,
|
|
#BARLINEOFF
|
|
#SCROLL 18.42
|
|
0,
|
|
#SCROLL 21.02
|
|
0, //71
|
|
|
|
#BARLINEON
|
|
#MEASURE 4/4
|
|
#BPMCHANGE 90
|
|
#SCROLL 12
|
|
#GOGOSTART
|
|
600000000008
|
|
#GOGOEND
|
|
4000, //72
|
|
|
|
#MEASURE 8/4
|
|
#BPMCHANGE 180
|
|
#SCROLL 0.5
|
|
#GOGOSTART
|
|
10101010201010200010101020101022,
|
|
10101010201010200010222211112100,
|
|
100000000000100100100100200200200200100100200200000100100100200200100100200000101010200000000000,
|
|
100000000000202020200200100100200200200200100100200000100100100100100100200200101010200000000000, //76
|
|
|
|
200000100100200200100100200000001010200200100100200200200200100100100100000000200000000000100100,
|
|
200000100100200200101010200000001010200200100100200200200200100100100100000000200000000000100200,
|
|
100000000000100100101010100000000000200200202020200000000000100100202020200000100100200200100100,
|
|
200200200200100100100100201010101010200200100100000100100100200200100100200100200100200000200000, //80
|
|
#GOGOEND
|
|
|
|
#MEASURE 4/4
|
|
#BPMCHANGE 90
|
|
#SCROLL 1
|
|
07000008,
|
|
0,
|
|
0,
|
|
0,
|
|
0, //85
|
|
#END
|
|
|
|
|
|
COURSE:Oni
|
|
LEVEL:7
|
|
BALLOON:24,2,24,24
|
|
SCOREINIT:2430
|
|
SCOREDIFF:0
|
|
|
|
#START
|
|
#SCROLL 12
|
|
#GOGOSTART
|
|
500000000000000000000000000000000008
|
|
#GOGOEND
|
|
000000000000,
|
|
|
|
#SCROLL 1
|
|
1021020110210200,
|
|
1021020110210201,
|
|
1122112202112101,
|
|
1122112202112100, //5
|
|
|
|
1021020110210200,
|
|
1021020110210201,
|
|
1122112202112101,
|
|
1122112202112100,
|
|
0002, //10
|
|
|
|
1000100100002010,
|
|
1000101100102011,
|
|
1000100100002001,
|
|
1000101100102200, //14
|
|
|
|
1000201100102101,
|
|
1001200100112000,
|
|
1000210100102011,
|
|
2111210121012200, //18
|
|
|
|
2000200020222000,
|
|
2000200020222000,
|
|
2000200020222021,
|
|
0010001101110010, //22
|
|
|
|
2000200020222000,
|
|
2000200020222000,
|
|
2000200020222200,
|
|
7008, //26
|
|
|
|
#SCROLL 12
|
|
#GOGOSTART
|
|
500000000000000000000000000000000008
|
|
#GOGOEND
|
|
000000000000, //27
|
|
|
|
#SCROLL 1
|
|
1000001011112020,
|
|
#MEASURE 3/4
|
|
122102,
|
|
#BARLINEOFF
|
|
#MEASURE 1/4
|
|
#SCROLL 12
|
|
#GOGOSTART
|
|
500000000800, //30
|
|
#GOGOEND
|
|
|
|
#BARLINEON
|
|
#MEASURE 4/4
|
|
#SCROLL 1
|
|
1000001011112220,
|
|
#MEASURE 3/4
|
|
112020111020,
|
|
#BARLINEOFF
|
|
#MEASURE 1/4
|
|
#SCROLL 12
|
|
#GOGOSTART
|
|
7080, //33
|
|
#GOGOEND
|
|
|
|
#BARLINEON
|
|
#MEASURE 4/4
|
|
#SCROLL 1
|
|
1000001011112020,
|
|
#MEASURE 3/4
|
|
122102,
|
|
#BARLINEOFF
|
|
#MEASURE 2/4
|
|
#BPMCHANGE 180
|
|
#SCROLL 6
|
|
#GOGOSTART
|
|
508005080050800508000000, //36
|
|
#GOGOEND
|
|
|
|
#BARLINEON
|
|
#MEASURE 4/4
|
|
#BPMCHANGE 90
|
|
#SCROLL 1
|
|
1010211020120020,
|
|
11111100, //38
|
|
|
|
#GOGOSTART
|
|
1000201110112102,
|
|
1000201110112112,
|
|
1000201121012100,
|
|
7008,
|
|
1010201120112102,
|
|
1010211120112112, //44
|
|
#GOGOEND
|
|
|
|
100
|
|
#SCROLL 0.8
|
|
2,
|
|
#SCROLL 0.66
|
|
0002,
|
|
#SCROLL 0.57
|
|
0002, //47
|
|
|
|
#MEASURE 1/32
|
|
#BPMCHANGE 45
|
|
#SCROLL 1
|
|
0,
|
|
#SCROLL 1.14
|
|
0,
|
|
#SCROLL 1.30
|
|
0,
|
|
#SCROLL 1.49
|
|
0,
|
|
#SCROLL 1.70
|
|
0,
|
|
#SCROLL 1.94
|
|
0,
|
|
#SCROLL 2.21
|
|
0,
|
|
#SCROLL 2.53
|
|
0, //55
|
|
|
|
#MEASURE 1/64
|
|
#SCROLL 2.88
|
|
0,
|
|
#SCROLL 3.29
|
|
0,
|
|
#SCROLL 3.76
|
|
0,
|
|
#SCROLL 4.29
|
|
0,
|
|
#SCROLL 4.90
|
|
0,
|
|
#SCROLL 5.59
|
|
0,
|
|
#SCROLL 6.38
|
|
0,
|
|
#SCROLL 7.29
|
|
0,
|
|
#SCROLL 8.32
|
|
0,
|
|
#SCROLL 9.50
|
|
0,
|
|
#SCROLL 10.84
|
|
0,
|
|
#SCROLL 12.38
|
|
0,
|
|
#SCROLL 14.13
|
|
0,
|
|
#SCROLL 16.13
|
|
0,
|
|
#BARLINEOFF
|
|
#SCROLL 18.42
|
|
0,
|
|
#SCROLL 21.02
|
|
0, //71
|
|
|
|
#BARLINEON
|
|
#MEASURE 4/4
|
|
#BPMCHANGE 90
|
|
#SCROLL 12
|
|
#GOGOSTART
|
|
600000000000000000000000000000000008
|
|
#GOGOEND
|
|
000000000000, //72
|
|
|
|
#MEASURE 8/4
|
|
#BPMCHANGE 180
|
|
#SCROLL 0.5
|
|
#GOGOSTART
|
|
1021020110220002,
|
|
1000000000221120,
|
|
1011221102211220,
|
|
1022112210111120, //76
|
|
|
|
1022102211110200,
|
|
1022102211110200,
|
|
1011102220112022,
|
|
1011221122112222, //80
|
|
#GOGOEND
|
|
|
|
#MEASURE 4/4
|
|
#BPMCHANGE 90
|
|
#SCROLL 1
|
|
07000008,
|
|
0,
|
|
0,
|
|
0,
|
|
0, //85
|
|
#END
|
|
|
|
|
|
COURSE:Hard
|
|
LEVEL:6
|
|
BALLOON:20,23,20,20
|
|
SCOREINIT:3030
|
|
SCOREDIFF:0
|
|
|
|
#START
|
|
#SCROLL 12
|
|
#GOGOSTART
|
|
500000000000000000000000000000000008
|
|
#GOGOEND
|
|
000000000000, //1
|
|
|
|
#SCROLL 1
|
|
1001010020020200,
|
|
1001010020020200,
|
|
1110101102002200,
|
|
1110101102002200, //5
|
|
|
|
1001010020020200,
|
|
1001010020020200,
|
|
1110101102002200,
|
|
1110101102002200,
|
|
0002, //10
|
|
|
|
1000100100002000,
|
|
1000101100102011,
|
|
1000100100002000,
|
|
1000101100102200, //14
|
|
|
|
1000201100102200,
|
|
1000200100112000,
|
|
1000210100102011,
|
|
1011220112202200, //18
|
|
|
|
2000200020222000,
|
|
2000200020222000,
|
|
2000200020222022,
|
|
0000001101110000, //22
|
|
|
|
2000200020222000,
|
|
2000200020222000,
|
|
2000200020222200,
|
|
7008, //26
|
|
|
|
#SCROLL 12
|
|
#GOGOSTART
|
|
500000000000000000000000000000000008
|
|
#GOGOEND
|
|
000000000000, //27
|
|
|
|
#SCROLL 1
|
|
1000001011102020,
|
|
#MEASURE 3/4
|
|
122102,
|
|
#MEASURE 1/4
|
|
#SCROLL 6
|
|
#GOGOSTART
|
|
0, //30
|
|
#GOGOEND
|
|
|
|
#MEASURE 4/4
|
|
#SCROLL 1
|
|
1000001011102020,
|
|
#MEASURE 3/4
|
|
122102,
|
|
#MEASURE 1/4
|
|
#SCROLL 6
|
|
#GOGOSTART
|
|
0, //33
|
|
#GOGOEND
|
|
|
|
#MEASURE 4/4
|
|
#SCROLL 1
|
|
1000001011102020,
|
|
#MEASURE 3/4
|
|
122102,
|
|
#MEASURE 2/4
|
|
#BPMCHANGE 180
|
|
#SCROLL 3
|
|
#GOGOSTART
|
|
0, //36
|
|
#GOGOEND
|
|
|
|
#MEASURE 4/4
|
|
#BPMCHANGE 90
|
|
#SCROLL 1
|
|
1010200010010070,
|
|
0008, //38
|
|
|
|
#GOGOSTART
|
|
1000201110220202,
|
|
1000201110220222,
|
|
1000201102021200,
|
|
7008,
|
|
1010201110220202,
|
|
1010201110220222, //44
|
|
#GOGOEND
|
|
|
|
000
|
|
#SCROLL 0.8
|
|
2,
|
|
#SCROLL 0.66
|
|
0002,
|
|
#SCROLL 0.57
|
|
0002, //47
|
|
|
|
#MEASURE 1/32
|
|
#BPMCHANGE 45
|
|
#SCROLL 1
|
|
0,
|
|
#SCROLL 1.14
|
|
0,
|
|
#SCROLL 1.30
|
|
0,
|
|
#SCROLL 1.49
|
|
0,
|
|
#SCROLL 1.70
|
|
0,
|
|
#SCROLL 1.94
|
|
0,
|
|
#SCROLL 2.21
|
|
0,
|
|
#SCROLL 2.53
|
|
0, //55
|
|
|
|
#MEASURE 1/64
|
|
#SCROLL 2.88
|
|
0,
|
|
#SCROLL 3.29
|
|
0,
|
|
#SCROLL 3.76
|
|
0,
|
|
#SCROLL 4.29
|
|
0,
|
|
#SCROLL 4.90
|
|
0,
|
|
#SCROLL 5.59
|
|
0,
|
|
#SCROLL 6.38
|
|
0,
|
|
#SCROLL 7.29
|
|
0,
|
|
#SCROLL 8.32
|
|
0,
|
|
#SCROLL 9.50
|
|
0,
|
|
#SCROLL 10.84
|
|
0,
|
|
#SCROLL 12.38
|
|
0,
|
|
#SCROLL 14.13
|
|
0,
|
|
#SCROLL 16.13
|
|
0,
|
|
#BARLINEOFF
|
|
#SCROLL 18.42
|
|
0,
|
|
#SCROLL 21.02
|
|
0, //71
|
|
|
|
#BARLINEON
|
|
#MEASURE 4/4
|
|
#BPMCHANGE 90
|
|
#SCROLL 12
|
|
#GOGOSTART
|
|
600000000000000000000000000000000008
|
|
#GOGOEND
|
|
000000000000, //72
|
|
|
|
#MEASURE 8/4
|
|
#BPMCHANGE 180
|
|
#SCROLL 0.5
|
|
#GOGOSTART
|
|
1001010020020000,
|
|
1000000000222220,
|
|
1011101102222020,
|
|
1022222010101120, //76
|
|
|
|
1020102011110200,
|
|
1020102011110200,
|
|
1011101110112020,
|
|
1011111020222220, //80
|
|
#GOGOEND
|
|
|
|
#MEASURE 4/4
|
|
#BPMCHANGE 90
|
|
#SCROLL 1
|
|
07000008,
|
|
0,
|
|
0,
|
|
0,
|
|
0, //85
|
|
#END
|
|
|
|
|
|
COURSE:Normal
|
|
LEVEL:6
|
|
BALLOON:12,12,14,12,12
|
|
SCOREINIT:4110
|
|
SCOREDIFF:0
|
|
|
|
#START
|
|
#SCROLL 12
|
|
#GOGOSTART
|
|
500000000000000000000000000000000008
|
|
#GOGOEND
|
|
000000000000,
|
|
|
|
#SCROLL 1
|
|
1001000020020000,
|
|
1001000020020000,
|
|
1000100102002000,
|
|
1000100102002000, //5
|
|
|
|
1001000020020000,
|
|
1001000020020000,
|
|
1000100102002000,
|
|
1000100102002000,
|
|
0, //10
|
|
|
|
1000100100002000,
|
|
1000101100102000,
|
|
1000100100002000,
|
|
1000101100102000, //14
|
|
|
|
1000201100102000,
|
|
1000201100102000,
|
|
1000220100102000,
|
|
7008, //18
|
|
|
|
20202220,
|
|
20202220,
|
|
2000200020202002,
|
|
0, //22
|
|
|
|
20202220,
|
|
20202220,
|
|
20202220,
|
|
7008, //26
|
|
|
|
#SCROLL 12
|
|
#GOGOSTART
|
|
500000000000000000000000000000000008
|
|
#GOGOEND
|
|
000000000000, //27
|
|
|
|
#SCROLL 1
|
|
1000001011102000,
|
|
#MEASURE 3/4
|
|
111100,
|
|
#MEASURE 1/4
|
|
#SCROLL 6
|
|
#GOGOSTART
|
|
0, //30
|
|
#GOGOEND
|
|
|
|
#MEASURE 4/4
|
|
#SCROLL 1
|
|
1000001011102000,
|
|
#MEASURE 3/4
|
|
222200,
|
|
#MEASURE 1/4
|
|
#SCROLL 6
|
|
#GOGOSTART
|
|
0, //33
|
|
#GOGOEND
|
|
|
|
#MEASURE 4/4
|
|
#SCROLL 1
|
|
1000001011102000,
|
|
#MEASURE 3/4
|
|
111100,
|
|
#MEASURE 2/4
|
|
#BPMCHANGE 180
|
|
#SCROLL 3
|
|
#GOGOSTART
|
|
0, //36
|
|
#GOGOEND
|
|
|
|
#MEASURE 4/4
|
|
#BPMCHANGE 90
|
|
#SCROLL 1
|
|
1010200010010070,
|
|
0008, //38
|
|
|
|
#GOGOSTART
|
|
1000201110020200,
|
|
1000201110020200,
|
|
1000201102020200,
|
|
7008,
|
|
1000201110020200,
|
|
1000201110020202, //44
|
|
#GOGOEND
|
|
|
|
000
|
|
#SCROLL 0.8
|
|
2,
|
|
#SCROLL 0.66
|
|
0002,
|
|
#SCROLL 0.57
|
|
0002, //47
|
|
|
|
#MEASURE 1/32
|
|
#BPMCHANGE 45
|
|
#SCROLL 1
|
|
0,
|
|
#SCROLL 1.14
|
|
0,
|
|
#SCROLL 1.30
|
|
0,
|
|
#SCROLL 1.49
|
|
0,
|
|
#SCROLL 1.70
|
|
0,
|
|
#SCROLL 1.94
|
|
0,
|
|
#SCROLL 2.21
|
|
0,
|
|
#SCROLL 2.53
|
|
0, //55
|
|
|
|
#MEASURE 1/64
|
|
#SCROLL 2.88
|
|
0,
|
|
#SCROLL 3.29
|
|
0,
|
|
#SCROLL 3.76
|
|
0,
|
|
#SCROLL 4.29
|
|
0,
|
|
#SCROLL 4.90
|
|
0,
|
|
#SCROLL 5.59
|
|
0,
|
|
#SCROLL 6.38
|
|
0,
|
|
#SCROLL 7.29
|
|
0,
|
|
#SCROLL 8.32
|
|
0,
|
|
#SCROLL 9.50
|
|
0,
|
|
#SCROLL 10.84
|
|
0,
|
|
#SCROLL 12.38
|
|
0,
|
|
#SCROLL 14.13
|
|
0,
|
|
#SCROLL 16.13
|
|
0,
|
|
#BARLINEOFF
|
|
#SCROLL 18.42
|
|
0,
|
|
#SCROLL 21.02
|
|
0, //71
|
|
|
|
#BARLINEON
|
|
#MEASURE 4/4
|
|
#BPMCHANGE 90
|
|
#SCROLL 12
|
|
#GOGOSTART
|
|
600000000000000000000000000000000008
|
|
#GOGOEND
|
|
000000000000, //72
|
|
|
|
#MEASURE 8/4
|
|
#BPMCHANGE 180
|
|
#SCROLL 0.5
|
|
#GOGOSTART
|
|
1001000020020000,
|
|
1000000000202220,
|
|
1010111000102220,
|
|
1020222010102000, //76
|
|
|
|
1020102011100200,
|
|
1020102011100200,
|
|
1011101110111000,
|
|
1010111020202220, //80
|
|
#GOGOEND
|
|
|
|
#MEASURE 4/4
|
|
#BPMCHANGE 90
|
|
#SCROLL 1
|
|
07000008,
|
|
0,
|
|
0,
|
|
0,
|
|
0, //85
|
|
#END
|
|
|
|
|
|
COURSE:Easy
|
|
LEVEL:4
|
|
BALLOON:8,10,10,8,10
|
|
SCOREINIT:7140
|
|
SCOREDIFF:0
|
|
|
|
#START
|
|
#SCROLL 12
|
|
#GOGOSTART
|
|
500000000000000000000000000000000008
|
|
#GOGOEND
|
|
000000000000,
|
|
|
|
#SCROLL 1
|
|
1011,
|
|
1011,
|
|
1022,
|
|
1022, //5
|
|
|
|
1011,
|
|
1011,
|
|
1022,
|
|
1022,
|
|
0, //10
|
|
|
|
1100,
|
|
2,
|
|
1100,
|
|
2002, //14
|
|
|
|
1100,
|
|
2200,
|
|
1100,
|
|
70000800, //18
|
|
|
|
2220,
|
|
2220,
|
|
2000200020000002,
|
|
0, //22
|
|
|
|
2220,
|
|
2220,
|
|
2220,
|
|
7008, //26
|
|
|
|
#SCROLL 12
|
|
#GOGOSTART
|
|
500000000000000000000000000000000008
|
|
#GOGOEND
|
|
000000000000, //27
|
|
|
|
#SCROLL 1
|
|
10001110,
|
|
#MEASURE 3/4
|
|
101100,
|
|
#MEASURE 1/4
|
|
#SCROLL 6
|
|
#GOGOSTART
|
|
0, //30
|
|
#GOGOEND
|
|
|
|
#MEASURE 4/4
|
|
#SCROLL 1
|
|
10001110,
|
|
#MEASURE 3/4
|
|
202200,
|
|
#MEASURE 1/4
|
|
#SCROLL 6
|
|
#GOGOSTART
|
|
0, //33
|
|
#GOGOEND
|
|
|
|
#MEASURE 4/4
|
|
#SCROLL 1
|
|
10001110,
|
|
#MEASURE 3/4
|
|
101100,
|
|
#MEASURE 2/4
|
|
#BPMCHANGE 180
|
|
#SCROLL 3
|
|
#GOGOSTART
|
|
0, //36
|
|
#GOGOEND
|
|
|
|
#MEASURE 4/4
|
|
#BPMCHANGE 90
|
|
#SCROLL 1
|
|
1000100010010070,
|
|
00000800, //38
|
|
|
|
#GOGOSTART
|
|
1012,
|
|
1012,
|
|
1122,
|
|
70000800,
|
|
10011020,
|
|
10011020, //44
|
|
#GOGOEND
|
|
|
|
100
|
|
#SCROLL 0.8
|
|
2,
|
|
#SCROLL 0.66
|
|
0002,
|
|
#SCROLL 0.57
|
|
0002, //47
|
|
|
|
#MEASURE 1/32
|
|
#BPMCHANGE 45
|
|
#SCROLL 1
|
|
0,
|
|
#SCROLL 1.14
|
|
0,
|
|
#SCROLL 1.30
|
|
0,
|
|
#SCROLL 1.49
|
|
0,
|
|
#SCROLL 1.70
|
|
0,
|
|
#SCROLL 1.94
|
|
0,
|
|
#SCROLL 2.21
|
|
0,
|
|
#SCROLL 2.53
|
|
0, //55
|
|
|
|
#MEASURE 1/64
|
|
#SCROLL 2.88
|
|
0,
|
|
#SCROLL 3.29
|
|
0,
|
|
#SCROLL 3.76
|
|
0,
|
|
#SCROLL 4.29
|
|
0,
|
|
#SCROLL 4.90
|
|
0,
|
|
#SCROLL 5.59
|
|
0,
|
|
#SCROLL 6.38
|
|
0,
|
|
#SCROLL 7.29
|
|
0,
|
|
#SCROLL 8.32
|
|
0,
|
|
#SCROLL 9.50
|
|
0,
|
|
#SCROLL 10.84
|
|
0,
|
|
#SCROLL 12.38
|
|
0,
|
|
#SCROLL 14.13
|
|
0,
|
|
#SCROLL 16.13
|
|
0,
|
|
#BARLINEOFF
|
|
#SCROLL 18.42
|
|
0,
|
|
#SCROLL 21.02
|
|
0, //71
|
|
|
|
#BARLINEON
|
|
#MEASURE 4/4
|
|
#BPMCHANGE 90
|
|
#SCROLL 12
|
|
#GOGOSTART
|
|
600000000000000000000000000000000008
|
|
#GOGOEND
|
|
000000000000, //72
|
|
|
|
#MEASURE 8/4
|
|
#BPMCHANGE 180
|
|
#SCROLL 0.5
|
|
#GOGOSTART
|
|
1012,
|
|
1002,
|
|
10110220,
|
|
10110220, //76
|
|
|
|
10101110,
|
|
10101110,
|
|
1122,
|
|
11201122, //80
|
|
#GOGOEND
|
|
|
|
#MEASURE 4/4
|
|
#BPMCHANGE 90
|
|
#SCROLL 1
|
|
07000008,
|
|
0,
|
|
0,
|
|
0,
|
|
0, //85
|
|
#END
|