Files
TJA-by-song-no/tja/1251.tja
2026-03-04 23:59:27 +09:00

1083 lines
14 KiB
Plaintext

//TJADB Project
TITLE:Licht
TITLEJA:リヒト
SUBTITLE:--WAKAZO / PolaPoriPosuPo
SUBTITLEJA:WAKAZO 「ポラポリポスポ」より
BPM:164.078
WAVE:Licht.ogg
OFFSET:-0.934
DEMOSTART:59.908
COURSE:Edit
LEVEL:9
BALLOON:82
SCOREINIT:1540
SCOREDIFF:0
#START
#SCROLL 1.02
200000200000200111100100,
#BPMCHANGE 166.814
#SCROLL 1
20000110,
#BPMCHANGE 161.204
#SCROLL 1.03
20010110,
#BPMCHANGE 163.912
#SCROLL 1.02
2000001110010010,
#BPMCHANGE 166.258
#SCROLL 1
200000200000100111200100,
#BPMCHANGE 161.887
#SCROLL 1.03
2011102010101120,
#BPMCHANGE 164.002
#SCROLL 1.02
1011102010101120,
#BPMCHANGE 163.999
1110111111112211,
#BPMCHANGE 164.002
2003, //9
#BPMCHANGE 164.790
#SCROLL 1.01
1021012011210120,
#BPMCHANGE 164.549
1021012011210122,
#BPMCHANGE 162.676
#SCROLL 1.03
1021012011210120,
#BPMCHANGE 165.987
#SCROLL 1.01
1021012011201122,
#BPMCHANGE 162.876
#SCROLL 1.02
1021012011210120,
#BPMCHANGE 164.619
#SCROLL 1.01
1021012011210122,
#BPMCHANGE 167.511
#SCROLL 1
1021012010221122,
#BPMCHANGE 163.543
#SCROLL 1.02
100000200000111100200000, //17
#BPMCHANGE 161.694
#SCROLL 1.03
1021021020120120,
#BPMCHANGE 164.752
#SCROLL 1.01
1021021020120120,
#BPMCHANGE 162.613
#SCROLL 1.03
1021122010201020,
#BPMCHANGE 163.409
#SCROLL 1.02
1021122010201020,
#BPMCHANGE 164.890
#SCROLL 1.01
1021021020120120,
#BPMCHANGE 163.543
#SCROLL 1.02
1021021020120120,
#BPMCHANGE 166.258
#SCROLL 1
1021122010201020,
#BPMCHANGE 161.694
#SCROLL 1.03
1021122020111111, //25
#BPMCHANGE 165.706
#SCROLL 1.01
1021121021120120,
#BPMCHANGE 161.199
#SCROLL 1.04
1021121022120120,
#BPMCHANGE 165.956
#SCROLL 1.01
1021121021120120,
#BPMCHANGE 163.677
#SCROLL 1.02
1021121011201111,
#BPMCHANGE 163.943
2021121021120120,
#BPMCHANGE 162.463
#SCROLL 1.03
1021121022120120,
#BPMCHANGE 164.231
#SCROLL 1.02
1021121021120120,
#BPMCHANGE 165.572
#SCROLL 1.01
1022111011111120, //33
#BPMCHANGE 163.811
#SCROLL 1.02
02112021,
#BPMCHANGE 163.276
22101202,
#BPMCHANGE 163.811
02112021,
#BPMCHANGE 163.321
2020101110200020,
#BPMCHANGE 165.388
#SCROLL 1.01
02112021,
#BPMCHANGE 162.636
#SCROLL 1.03
200200100100100111200100,
#BPMCHANGE 166.651
#SCROLL 1
11000000,
#BPMCHANGE 164.888
#SCROLL 1.01
000000111100111100200000, //41
#BPMCHANGE 167.162
#SCROLL 1
#GOGOSTART
1020112210201022,
1020112210201021,
#BPMCHANGE 167.913
#SCROLL 0.99
1010212110102021,
1010212110112111,
#BPMCHANGE 166.279
#SCROLL 1
2020112210201022,
1020112210101021,
#BPMCHANGE 166.811
1010212110102021,
#BPMCHANGE 165.435
#SCROLL 1.01
1110202110112111, //49
#BPMCHANGE 169.787
#SCROLL 0.98
2010210120102021,
#BPMCHANGE 165.435
#SCROLL 1.01
1010210120102021,
#BPMCHANGE 169.082
#SCROLL 0.99
1010210120102022,
#BPMCHANGE 167.001
#SCROLL 1
1110200110111111,
#BPMCHANGE 166.334
2010201120102011,
#BPMCHANGE 167.652
2010201011112222,
#BPMCHANGE 165.847
#SCROLL 1.01
111222,
#GOGOEND
#BPMCHANGE 167.511
#SCROLL 1
2033, //57
#BPMCHANGE 163.009
#SCROLL 1.02
1021012011210120,
#BPMCHANGE 165.027
#SCROLL 1.01
1021012011210122,
#BPMCHANGE 163.543
#SCROLL 1.02
1021012011210120,
#BPMCHANGE 166.127
#SCROLL 1
1021012010221122,
#BPMCHANGE 161.433
#SCROLL 1.03
1021012011210120,
#BPMCHANGE 164.213
#SCROLL 1.02
1021012011210122,
#BPMCHANGE 165.161
#SCROLL 1.01
1021012010221122,
#BPMCHANGE 163.943
#SCROLL 1.02
100000200000111100111100, //65
#BPMCHANGE 165.599
#SCROLL 1.01
37,
0,
0,
0,
000000000000000000080000,
0, //71
#END
COURSE:Oni
LEVEL:7
BALLOON:15,75
SCOREINIT:2440
SCOREDIFF:0
#START
#SCROLL 1.02
2000200020111010,
#BPMCHANGE 166.814
#SCROLL 1
20000110,
#BPMCHANGE 161.204
#SCROLL 1.03
20010110,
#BPMCHANGE 163.912
#SCROLL 1.02
2000001110010010,
#BPMCHANGE 166.258
#SCROLL 1
2000200010112000,
#BPMCHANGE 161.887
#SCROLL 1.03
21121112,
#BPMCHANGE 164.002
#SCROLL 1.02
11121112,
#BPMCHANGE 163.999
500000000000000000000000000000000008000000000000,
#BPMCHANGE 164.002
4003, //9
#BPMCHANGE 164.790
#SCROLL 1.01
1022102010221020,
#BPMCHANGE 164.549
1022102010221000,
#BPMCHANGE 162.676
#SCROLL 1.03
1022102010221020,
#BPMCHANGE 165.987
#SCROLL 1.01
1022102010221000,
#BPMCHANGE 162.876
#SCROLL 1.02
1022102010221020,
#BPMCHANGE 164.619
#SCROLL 1.01
1022102010221000,
#BPMCHANGE 167.511
#SCROLL 1
1022102010101110,
#BPMCHANGE 163.543
#SCROLL 1.02
1000200011102000, //17
#BPMCHANGE 161.694
#SCROLL 1.03
1001001020020020,
#BPMCHANGE 164.752
#SCROLL 1.01
1001001020020020,
#BPMCHANGE 162.613
#SCROLL 1.03
10303033,
#BPMCHANGE 163.409
#SCROLL 1.02
00404044,
#BPMCHANGE 164.890
#SCROLL 1.01
1001001020020020,
#BPMCHANGE 163.543
#SCROLL 1.02
1001001020020020,
#BPMCHANGE 166.258
#SCROLL 1
10303033,
#BPMCHANGE 161.694
#SCROLL 1.03
00404044, //25
#BPMCHANGE 165.706
#SCROLL 1.01
1011001020220020,
#BPMCHANGE 161.199
#SCROLL 1.04
1011001020000020,
#BPMCHANGE 165.956
#SCROLL 1.01
1011001020220020,
#BPMCHANGE 163.677
#SCROLL 1.02
1011011010101110,
#BPMCHANGE 163.943
1011001020220020,
#BPMCHANGE 162.463
#SCROLL 1.03
1011001020000020,
#BPMCHANGE 164.231
#SCROLL 1.02
1011001020220020,
#BPMCHANGE 165.572
#SCROLL 1.01
1020102011101120, //33
#BPMCHANGE 163.811
#SCROLL 1.02
02112001,
#BPMCHANGE 163.276
22100202,
#BPMCHANGE 163.811
02112001,
#BPMCHANGE 163.321
22100202,
#BPMCHANGE 165.388
#SCROLL 1.01
02112001,
#BPMCHANGE 162.636
#SCROLL 1.03
2020101010112000,
#BPMCHANGE 166.651
#SCROLL 1
11000000,
#BPMCHANGE 164.888
#SCROLL 1.01
700000000000000000000000000000000000000008000000, //41
#BPMCHANGE 167.162
#SCROLL 1
#GOGOSTART
1000102220001022,
2000102220102000,
#BPMCHANGE 167.913
#SCROLL 0.99
5,
000000000008000000200000100000000100000000100000,
#BPMCHANGE 166.279
#SCROLL 1
2000102220001022,
2000102220102000,
#BPMCHANGE 166.811
5,
#BPMCHANGE 165.435
#SCROLL 1.01
000000000008000000000000000000000000000000000000, //49
#BPMCHANGE 169.787
#SCROLL 0.98
12121022,
#BPMCHANGE 165.435
#SCROLL 1.01
1020100220102000,
#BPMCHANGE 169.082
#SCROLL 0.99
11221022,
#BPMCHANGE 167.001
#SCROLL 1
11201050,
#BPMCHANGE 166.334
000000000000000000000000000000000000000008000000,
#BPMCHANGE 167.652
2000200010101110,
#BPMCHANGE 165.847
#SCROLL 1.01
111222,
#GOGOEND
#BPMCHANGE 167.511
#SCROLL 1
2033, //57
#BPMCHANGE 163.009
#SCROLL 1.02
1022102010221020,
#BPMCHANGE 165.027
#SCROLL 1.01
1022102010221000,
#BPMCHANGE 163.543
#SCROLL 1.02
1022102010221020,
#BPMCHANGE 166.127
#SCROLL 1
1022102010221000,
#BPMCHANGE 161.433
#SCROLL 1.03
1022102010221020,
#BPMCHANGE 164.213
#SCROLL 1.02
1022102010221000,
#BPMCHANGE 165.161
#SCROLL 1.01
1022102010101110,
#BPMCHANGE 163.943
#SCROLL 1.02
100000000000200000000000500000000000000008000000, //65
#BPMCHANGE 165.599
#SCROLL 1.01
37,
0,
0,
0,
000000000000000000080000,
0, //71
#END
COURSE:Hard
LEVEL:4
BALLOON:12,61
SCOREINIT:3370
SCOREDIFF:0
#START
#SCROLL 1.02
2000200020111000,
#BPMCHANGE 166.814
#SCROLL 1
20000110,
#BPMCHANGE 161.204
#SCROLL 1.03
20010110,
#BPMCHANGE 163.912
#SCROLL 1.02
2000000010010010,
#BPMCHANGE 166.258
#SCROLL 1
20201120,
#BPMCHANGE 161.887
#SCROLL 1.03
21101110,
#BPMCHANGE 164.002
#SCROLL 1.02
11101110,
#BPMCHANGE 163.999
500000000000000000000000000000000008000000000000,
#BPMCHANGE 164.002
4003, //9
#BPMCHANGE 164.790
#SCROLL 1.01
12101210,
#BPMCHANGE 164.549
12101210,
#BPMCHANGE 162.676
#SCROLL 1.03
12121210,
#BPMCHANGE 165.987
#SCROLL 1.01
12121210,
#BPMCHANGE 162.876
#SCROLL 1.02
12101210,
#BPMCHANGE 164.619
#SCROLL 1.01
12101210,
#BPMCHANGE 167.511
#SCROLL 1
1020102010101110,
#BPMCHANGE 163.543
#SCROLL 1.02
1, //17
#BPMCHANGE 161.694
#SCROLL 1.03
1001001010000000,
#BPMCHANGE 164.752
#SCROLL 1.01
1001001010000000,
#BPMCHANGE 162.613
#SCROLL 1.03
2333,
#BPMCHANGE 163.409
#SCROLL 1.02
0333,
#BPMCHANGE 164.890
#SCROLL 1.01
1001001010000000,
#BPMCHANGE 163.543
#SCROLL 1.02
1001001010000000,
#BPMCHANGE 166.258
#SCROLL 1
2333,
#BPMCHANGE 161.694
#SCROLL 1.03
0333, //25
#BPMCHANGE 165.706
#SCROLL 1.01
1001001020020020,
#BPMCHANGE 161.199
#SCROLL 1.04
1001001010000020,
#BPMCHANGE 165.956
#SCROLL 1.01
1001001020020020,
#BPMCHANGE 163.677
#SCROLL 1.02
1001001010001000,
#BPMCHANGE 163.943
1001001020020020,
#BPMCHANGE 162.463
#SCROLL 1.03
1001001010000020,
#BPMCHANGE 164.231
#SCROLL 1.02
1001001020020020,
#BPMCHANGE 165.572
#SCROLL 1.01
3333, //33
#BPMCHANGE 163.811
#SCROLL 1.02
01111002,
#BPMCHANGE 163.276
22200000,
#BPMCHANGE 163.811
01111002,
#BPMCHANGE 163.321
22200000,
#BPMCHANGE 165.388
#SCROLL 1.01
01111002,
#BPMCHANGE 162.636
#SCROLL 1.03
22200000,
#BPMCHANGE 166.651
#SCROLL 1
11000000,
#BPMCHANGE 164.888
#SCROLL 1.01
700000000000000000000000000000000000000008000000, //41
#BPMCHANGE 167.162
#SCROLL 1
#GOGOSTART
10122012,
20122120,
#BPMCHANGE 167.913
#SCROLL 0.99
5,
000000000008000000000000100000000100000000100000,
#BPMCHANGE 166.279
#SCROLL 1
20122012,
20122120,
#BPMCHANGE 166.811
5,
#BPMCHANGE 165.435
#SCROLL 1.01
000000000008000000000000000000000000000000000000, //49
#BPMCHANGE 169.787
#SCROLL 0.98
10111020,
#BPMCHANGE 165.435
#SCROLL 1.01
10102120,
#BPMCHANGE 169.082
#SCROLL 0.99
10111022,
#BPMCHANGE 167.001
#SCROLL 1
1215,
#BPMCHANGE 166.334
000000000000000000000000000000000000000008000000,
#BPMCHANGE 167.652
20201120,
#BPMCHANGE 165.847
#SCROLL 1.01
111111,
#GOGOEND
#BPMCHANGE 167.511
#SCROLL 1
1033, //57
#BPMCHANGE 163.009
#SCROLL 1.02
12101210,
#BPMCHANGE 165.027
#SCROLL 1.01
12101210,
#BPMCHANGE 163.543
#SCROLL 1.02
12121210,
#BPMCHANGE 166.127
#SCROLL 1
12121210,
#BPMCHANGE 161.433
#SCROLL 1.03
12101210,
#BPMCHANGE 164.213
#SCROLL 1.02
12101210,
#BPMCHANGE 165.161
#SCROLL 1.01
1020102010101110,
#BPMCHANGE 163.943
#SCROLL 1.02
100000000000200000000000500000000000000008000000, //65
#BPMCHANGE 165.599
#SCROLL 1.01
39,
0,
0,
000000000000000000000000000000000009000000000000,
000000000000000000080000,
0, //71
#END
COURSE:Normal
LEVEL:4
BALLOON:7,9,40
SCOREINIT:6270
SCOREDIFF:0
#START
#SCROLL 1.02
0,
#BPMCHANGE 166.814
#SCROLL 1
2001,
#BPMCHANGE 161.204
#SCROLL 1.03
20010010,
#BPMCHANGE 163.912
#SCROLL 1.02
2,
#BPMCHANGE 166.258
#SCROLL 1
2210,
#BPMCHANGE 161.887
#SCROLL 1.03
1110,
#BPMCHANGE 164.002
#SCROLL 1.02
1110,
#BPMCHANGE 163.999
500000000000000000000000000000000008000000000000,
#BPMCHANGE 164.002
4, //9
#BPMCHANGE 164.790
#SCROLL 1.01
1120,
#BPMCHANGE 164.549
1120,
#BPMCHANGE 162.676
#SCROLL 1.03
1120,
#BPMCHANGE 165.987
#SCROLL 1.01
1210,
#BPMCHANGE 162.876
#SCROLL 1.02
1120,
#BPMCHANGE 164.619
#SCROLL 1.01
1120,
#BPMCHANGE 167.511
#SCROLL 1
1121,
#BPMCHANGE 163.543
#SCROLL 1.02
1, //17
#BPMCHANGE 161.694
#SCROLL 1.03
11,
#BPMCHANGE 164.752
#SCROLL 1.01
11,
#BPMCHANGE 162.613
#SCROLL 1.03
2330,
#BPMCHANGE 163.409
#SCROLL 1.02
0330,
#BPMCHANGE 164.890
#SCROLL 1.01
11,
#BPMCHANGE 163.543
#SCROLL 1.02
11,
#BPMCHANGE 166.258
#SCROLL 1
2330,
#BPMCHANGE 161.694
#SCROLL 1.03
0330, //25
#BPMCHANGE 165.706
#SCROLL 1.01
12,
#BPMCHANGE 161.199
#SCROLL 1.04
12,
#BPMCHANGE 165.956
#SCROLL 1.01
21,
#BPMCHANGE 163.677
#SCROLL 1.02
2012,
#BPMCHANGE 163.943
12,
#BPMCHANGE 162.463
#SCROLL 1.03
12,
#BPMCHANGE 164.231
#SCROLL 1.02
21,
#BPMCHANGE 165.572
#SCROLL 1.01
3333, //33
#BPMCHANGE 163.811
#SCROLL 1.02
01101002,
#BPMCHANGE 163.276
2200,
#BPMCHANGE 163.811
01101002,
#BPMCHANGE 163.321
2200,
#BPMCHANGE 165.388
#SCROLL 1.01
01101002,
#BPMCHANGE 162.636
#SCROLL 1.03
2200,
#BPMCHANGE 166.651
#SCROLL 1
11000000,
#BPMCHANGE 164.888
#SCROLL 1.01
700000000000000000000000000000000000000008000000, //41
#BPMCHANGE 167.162
#SCROLL 1
#GOGOSTART
10111011,
10111010,
#BPMCHANGE 167.913
#SCROLL 0.99
5,
000000000008000000000000000000000000000000000000,
#BPMCHANGE 166.279
#SCROLL 1
10111011,
10111010,
#BPMCHANGE 166.811
5,
#BPMCHANGE 165.435
#SCROLL 1.01
000000000008000000000000000000000000000000000000, //49
#BPMCHANGE 169.787
#SCROLL 0.98
1112,
#BPMCHANGE 165.435
#SCROLL 1.01
1100,
#BPMCHANGE 169.082
#SCROLL 0.99
1112,
#BPMCHANGE 167.001
#SCROLL 1
1215,
#BPMCHANGE 166.334
000000000000000000000000000000000000000008000000,
#BPMCHANGE 167.652
0002,
#BPMCHANGE 165.847
#SCROLL 1.01
7,
#GOGOEND
#BPMCHANGE 167.511
#SCROLL 1
83, //57
#BPMCHANGE 163.009
#SCROLL 1.02
1120,
#BPMCHANGE 165.027
#SCROLL 1.01
1120,
#BPMCHANGE 163.543
#SCROLL 1.02
1120,
#BPMCHANGE 166.127
#SCROLL 1
1210,
#BPMCHANGE 161.433
#SCROLL 1.03
1120,
#BPMCHANGE 164.213
#SCROLL 1.02
1120,
#BPMCHANGE 165.161
#SCROLL 1.01
1121,
#BPMCHANGE 163.943
#SCROLL 1.02
1200, //65
#BPMCHANGE 165.599
#SCROLL 1.01
39,
0,
0,
000000000000000000000000000000000009000000000000,
000000000000000000080000,
0, //71
#END
COURSE:Easy
LEVEL:2
BALLOON:4,7,33
SCOREINIT:10330
SCOREDIFF:0
#START
#SCROLL 1.02
0,
#BPMCHANGE 166.814
#SCROLL 1
2,
#BPMCHANGE 161.204
#SCROLL 1.03
2,
#BPMCHANGE 163.912
#SCROLL 1.02
2,
#BPMCHANGE 166.258
#SCROLL 1
2,
#BPMCHANGE 161.887
#SCROLL 1.03
11,
#BPMCHANGE 164.002
#SCROLL 1.02
11,
#BPMCHANGE 163.999
500000000000000000000000000008000000000000000000,
#BPMCHANGE 164.002
4, //9
#BPMCHANGE 164.790
#SCROLL 1.01
12,
#BPMCHANGE 164.549
12,
#BPMCHANGE 162.676
#SCROLL 1.03
12,
#BPMCHANGE 165.987
#SCROLL 1.01
11,
#BPMCHANGE 162.876
#SCROLL 1.02
12,
#BPMCHANGE 164.619
#SCROLL 1.01
12,
#BPMCHANGE 167.511
#SCROLL 1
12,
#BPMCHANGE 163.543
#SCROLL 1.02
1, //17
#BPMCHANGE 161.694
#SCROLL 1.03
1,
#BPMCHANGE 164.752
#SCROLL 1.01
1,
#BPMCHANGE 162.613
#SCROLL 1.03
23,
#BPMCHANGE 163.409
#SCROLL 1.02
03,
#BPMCHANGE 164.890
#SCROLL 1.01
1,
#BPMCHANGE 163.543
#SCROLL 1.02
1,
#BPMCHANGE 166.258
#SCROLL 1
23,
#BPMCHANGE 161.694
#SCROLL 1.03
03, //25
#BPMCHANGE 165.706
#SCROLL 1.01
11,
#BPMCHANGE 161.199
#SCROLL 1.04
11,
#BPMCHANGE 165.956
#SCROLL 1.01
22,
#BPMCHANGE 163.677
#SCROLL 1.02
22,
#BPMCHANGE 163.943
11,
#BPMCHANGE 162.463
#SCROLL 1.03
11,
#BPMCHANGE 164.231
#SCROLL 1.02
22,
#BPMCHANGE 165.572
#SCROLL 1.01
33, //33
#BPMCHANGE 163.811
#SCROLL 1.02
01,
#BPMCHANGE 163.276
1100,
#BPMCHANGE 163.811
01,
#BPMCHANGE 163.321
1100,
#BPMCHANGE 165.388
#SCROLL 1.01
01,
#BPMCHANGE 162.636
#SCROLL 1.03
1100,
#BPMCHANGE 166.651
#SCROLL 1
1,
#BPMCHANGE 164.888
#SCROLL 1.01
70000800, //41
#BPMCHANGE 167.162
#SCROLL 1
#GOGOSTART
11,
1011,
#BPMCHANGE 167.913
#SCROLL 0.99
5,
000000000008000000000000000000000000000000000000,
#BPMCHANGE 166.279
#SCROLL 1
11,
1011,
#BPMCHANGE 166.811
5,
#BPMCHANGE 165.435
#SCROLL 1.01
000000000008000000000000000000000000000000000000, //49
#BPMCHANGE 169.787
#SCROLL 0.98
1110,
#BPMCHANGE 165.435
#SCROLL 1.01
1,
#BPMCHANGE 169.082
#SCROLL 0.99
2220,
#BPMCHANGE 167.001
#SCROLL 1
2015,
#BPMCHANGE 166.334
000000000000000000000000000000000000000008000000,
#BPMCHANGE 167.652
0001,
#BPMCHANGE 165.847
#SCROLL 1.01
7,
#GOGOEND
#BPMCHANGE 167.511
#SCROLL 1
8, //57
#BPMCHANGE 163.009
#SCROLL 1.02
12,
#BPMCHANGE 165.027
#SCROLL 1.01
12,
#BPMCHANGE 163.543
#SCROLL 1.02
12,
#BPMCHANGE 166.127
#SCROLL 1
11,
#BPMCHANGE 161.433
#SCROLL 1.03
12,
#BPMCHANGE 164.213
#SCROLL 1.02
12,
#BPMCHANGE 165.161
#SCROLL 1.01
12,
#BPMCHANGE 163.943
#SCROLL 1.02
1, //65
#BPMCHANGE 165.599
#SCROLL 1.01
39,
0,
0,
000000000000000000000000000000000009000000000000,
000000000000000000080000,
0, //71
#END