Files
TJA-by-song-no/tja/1381.tja
2026-03-04 23:59:27 +09:00

482 lines
6.1 KiB
Plaintext
Raw Blame History

This file contains ambiguous Unicode characters
This file contains Unicode characters that might be confused with other characters. If you think that this is intentional, you can safely ignore this warning. Use the Escape button to reveal them.
//TJADB Project
TITLE:Minna no Kakigoori
TITLEJA:ミンナノカキゴオリ
SUBTITLE:--Bonjour Suzuki feat. Yuichiro Tsukagoshi (NanosizeMir) & GIW
SUBTITLEJA:ボンジュール鈴木 feat. 塚越雄一朗(NanosizeMir) 祇羽
BPM:143
WAVE:Minna no Kakigoori.ogg
OFFSET:-2.547
DEMOSTART:51.217
//shinuchi: 4550/2490/1730/1130
COURSE:Oni
LEVEL:9
BALLOON:13,20,10
SCOREINIT:400,1280
SCOREDIFF:90
#START
3002203002203002,
27000080,
3002203002203002,
25000000,
000000000000000000000008000000000000400000000000, //5
3001201210101120,
000100100000200000100200100100100000202020100000,
1001201210101120,
100000100100200200100100202020100100200200100100,
1000300210101120,
000100100000200000100200101020202020202010101010,
1001201210101120,
0040040040000000, //13
100222200200222200200200,
1021202000200022,
100222200200222200200200,
1021201000202020,
100000202020200000200000100000200200200200200200,
100000202020200000202020100000200000200200200200,
100000202020200000200000100200200100200200200000,
434300, //21
1000200110102012,
1010201110102010,
1020202211112110,
1011201211102000,
1022102212021020,
1012101211111111,
7,
80021222, //29
#GOGOSTART
1011201211201122,
100000200100100000200100100100100100200000202020,
1011201211201122,
1021102210303030,
1021021010221110,
1021021010221030,
03040403,
000000400000000000300000100100100100100100202020, //37
1011201211201122,
100000200100100000200100100100100100200000202020,
1011201211201122,
1021102210303030,
1021021010221110,
1021021010221030,
03040403,
04040406, //45
0,
000000000000000000000000000008000000000000000000,
#GOGOEND
1001201210101120,
100000100100200200100100202020100100200200100000,
0030003000101120,
000100100000200000100200101020202020202010101010,
1001201210101120,
0040040030000000, //53
33302033,
30022210,
100000202020200000200000100000200200200200200200,
100000000100200000100000100000200000202020202020,
1022102212021020,
1012101211111111,
700000000000800000000111,
100000100100200200100000100000202020202020101010, //61
#GOGOSTART
1011201211201122,
100000200100100000200100100100100100200000202020,
1011201211201122,
1021102210303030,
1021021010221110,
1021021010221030,
03040403,
000000400000000000300000100100100100100100202020, //69
1011201211201122,
100000200100100000200100100100100100200000202020,
1011201211201122,
1021102210303030,
1021021010221110,
1021021010221030,
03040403,
04040404, //77
300221200300211200300221,
1030001122121110,
#GOGOEND
3022103021203022,
16000000,
0,
000000000000000000000000000000000000000000000008,
0, //84
#END
COURSE:Hard
LEVEL:7
BALLOON:10,15,8
SCOREINIT:470,2020
SCOREDIFF:113
#START
30230230,
27000080,
30230230,
25000000,
000000000000000000000008000000000000400000000000, //5
3000200110101020,
0010200110102010,
1000200110101020,
01212121,
3000300110101020,
0010200110202011,
1000200110101020,
0040040040000000, //13
10202220,
1001002000200020,
10202220,
1001001000202020,
1000200010222000,
10201202,
1000200010222000,
434300, //21
10201120,
1000201110102000,
1020200011102000,
1010200011102000,
10121012,
1010101011101110,
7,
80021222, //29
#GOGOSTART
1010200010201110,
0010101110102020,
1010200010201120,
0020111010101010,
1022022010102000,
1022022010100030,
03040403,
0040003000111020, //37
1010200010201110,
0010101110102020,
1010200010201120,
0020111010101010,
1022022010102000,
1022022010100030,
03040403,
04040406, //45
0,
000000000000000000000000000008000000000000000000,
#GOGOEND
1000200110101020,
01212123,
03030112,
0010200110202011,
1000200110101020,
0040040030000000, //53
11102011,
10022210,
12221202,
1001001010002220,
10121012,
1010101011101110,
78,
1010201010222011, //61
#GOGOSTART
1010200010201110,
0010101110102020,
1010200010201120,
0020111010101010,
1022022010102000,
1022022010100030,
03040403,
0040003000111020, //69
1010200010201110,
0010101110102020,
1010200010201120,
0020111010101010,
1022022010102000,
1022022010100030,
03040403,
04040404, //77
30230230,
2030001020101110,
#GOGOEND
30230230,
26000000,
0,
000000000000000000000000000000000000000000000008,
0,
#END
COURSE:Normal
LEVEL:6
BALLOON:7,10,6
SCOREINIT:500,2990
SCOREDIFF:130
#START
30030030,
07000080,
30030030,
05000000,
000000000000000000000008000000000000400000000000, //5
10101102,
02202220,
10101102,
02202220,
30301102,
02202220,
10101102,
0040040040000000, //13
12,
1001001000000010,
12,
1001001000202000,
1012,
10001011,
11,
212100, //21
10101110,
10111010,
20202220,
20222020,
10111011,
10111011,
7,
8011, //29
#GOGOSTART
10201112,
02011120,
10101112,
02021110,
1001001020200000,
1001001020200030,
03040403,
000000400000000000500000000000000008000000000000, //37
10201112,
02011120,
10101112,
02021110,
1001001020200000,
1001001020200030,
03040403,
04040406, //45
0,
000000000000000000000000000008000000000000000000,
#GOGOEND
10101102,
02202201,
01030002,
00202220,
10101102,
0040040030000000, //53
11100011,
10022220,
11,
1001001010000000,
10111011,
10111011,
78,
1012, //61
#GOGOSTART
10201112,
02011120,
10101112,
02021110,
1001001020200000,
1001001020200030,
03040403,
04030110, //69
10201112,
02011120,
10101112,
02021110,
1001001020200000,
1001001020200030,
03040403,
04040404, //77
30030030,
03010110,
#GOGOEND
30030030,
06000000,
0,
000000000000000000000000000000000000000000000008,
0, //84
#END
COURSE:Easy
LEVEL:4
BALLOON:4,8,3
SCOREINIT:520,5140
SCOREDIFF:148
#START
30030030,
07000080,
30030030,
05000000,
000000000000000000000008000000000000000000000000, //5
10001002,
01,
10001002,
01,
10101002,
02,
10001002,
04, //13
11,
1,
11,
1,
11,
11,
11,
21, //21
1011,
1011,
2220,
2220,
1110,
1111,
7,
81, //29
#GOGOSTART
10100202,
02020010,
10100202,
02020000,
10001100,
10001101,
01020001,
02030000, //37
10100202,
02020010,
10100202,
02020000,
10001100,
10001101,
01020001,
01020406, //45
0,
000000000000000000000000000008000000000000000000,
#GOGOEND
10001002,
00001001,
01030002,
01,
10001002,
03, //53
1101,
12,
11,
11,
1110,
1111,
78,
11, //61
#GOGOSTART
10100202,
02020010,
10100202,
02020000,
10001100,
10001101,
01020001,
01030000, //69
10100202,
02020010,
10100202,
02020000,
10001100,
10001101,
01020001,
01020406, //77
000000000000000000000000000000000000000000000008,
0,
#GOGOEND
30030030,
06000000,
0,
000000000000000000000000000000000000000000000008,
0, //84
#END