633 lines
6.9 KiB
Plaintext
633 lines
6.9 KiB
Plaintext
//TJADB Project
|
|
TITLE:Bubbly Kakumei ~Bang Bang Bubble~
|
|
TITLEJA:バブリー革命 ~ばんばんバブル~
|
|
SUBTITLE:--Juliana no Tatari
|
|
SUBTITLEJA:ジュリアナの祟り
|
|
BPM:155
|
|
WAVE:Bubbly Kakumei Bang Bang Bubble.ogg
|
|
OFFSET:-0.330
|
|
DEMOSTART:55.674
|
|
|
|
|
|
COURSE:Edit
|
|
LEVEL:9
|
|
BALLOON:2,2
|
|
SCOREINIT:1200
|
|
SCOREDIFF:0
|
|
|
|
#START
|
|
7008,
|
|
002020202020207000000800,
|
|
|
|
#GOGOSTART
|
|
1022102210111120,
|
|
1022101022121010,
|
|
1022102210111120,
|
|
1022101012221210,
|
|
|
|
1022102210111120,
|
|
1022101022121010,
|
|
1022102210111120,
|
|
#GOGOEND
|
|
0011101120101000, //10
|
|
|
|
4111,
|
|
10101012,
|
|
1111,
|
|
100000000000100000000000100100100000101010101010,
|
|
|
|
10121010,
|
|
10121210,
|
|
10121010,
|
|
100000200100100000100000100100100000101010101010, //18
|
|
|
|
#GOGOSTART
|
|
1022102210111120,
|
|
1022101022121010,
|
|
1022102210111120,
|
|
1022101012221210,
|
|
|
|
1022102210111120,
|
|
1022101022121010,
|
|
1022102210111120,
|
|
#GOGOEND
|
|
0011101120122000, //26
|
|
|
|
3002102010021020,
|
|
1002102010111011,
|
|
1002102010021030,
|
|
0030404030112122,
|
|
|
|
1002102010021020,
|
|
1002102010111011,
|
|
1002102012021022,
|
|
1002102012021020,
|
|
200200100100200200100100200000200000101010100100,
|
|
03443040, //36
|
|
|
|
#GOGOSTART
|
|
3011012011012022,
|
|
1011012012121122,
|
|
1011012011012022,
|
|
1011012011212122,
|
|
|
|
1011012011012022,
|
|
1011012012121122,
|
|
1011012011012022,
|
|
1011012011212120, //44
|
|
|
|
3011212011212022,
|
|
1011212012121122,
|
|
1011212011212022,
|
|
1121212212121122,
|
|
|
|
1011212011212022,
|
|
1011212012121122,
|
|
1021021021021122,
|
|
100100200200100100101010100000100000400000000000, //52
|
|
|
|
1022102210111120,
|
|
1022101022121010,
|
|
1022102210111120,
|
|
1022101012221210,
|
|
|
|
1022102210111120,
|
|
1022101022121010,
|
|
1022102210111120,
|
|
#GOGOEND
|
|
0011101120101000, //60
|
|
|
|
30003006,
|
|
000000000000000000000000000000000008000000000000,
|
|
30003006,
|
|
000000000000000000000008000000000000300000000000,
|
|
|
|
30003006,
|
|
000000000000000000000000000000000008000000000000,
|
|
30003006,
|
|
000000000000000000000000000000000008000000000000, //68
|
|
|
|
#GOGOSTART
|
|
1022102210111120,
|
|
1022101022121010,
|
|
1022102210111120,
|
|
1022101012221210,
|
|
|
|
1022102210111120,
|
|
1022101022121010,
|
|
1022102210111120,
|
|
0011101120101110, //76
|
|
|
|
2111211121212121,
|
|
1121211121212111,
|
|
2111211121212121,
|
|
1121211121212111,
|
|
|
|
2111211121212121,
|
|
1121211121212111,
|
|
20004334,
|
|
0,
|
|
#GOGOEND
|
|
0,
|
|
0, //86
|
|
#END
|
|
|
|
|
|
COURSE:Oni
|
|
LEVEL:7
|
|
BALLOON:9,14
|
|
SCOREINIT:1790
|
|
SCOREDIFF:0
|
|
|
|
#START
|
|
3,
|
|
022222230000,
|
|
|
|
#GOGOSTART
|
|
3020102010111010,
|
|
0010200010111000,
|
|
1020102010111010,
|
|
0010200020111000,
|
|
|
|
1020102010111010,
|
|
0010200010111000,
|
|
1020102010111010,
|
|
#GOGOEND
|
|
01103011, //10
|
|
|
|
10221122,
|
|
10110010,
|
|
10221122,
|
|
10120211,
|
|
|
|
10221122,
|
|
10110010,
|
|
10221010,
|
|
1022102010202000, //18
|
|
|
|
#GOGOSTART
|
|
3020102010111010,
|
|
0010200010111000,
|
|
1020102010111010,
|
|
0010200020111000,
|
|
|
|
1020102010111010,
|
|
0010200010111000,
|
|
1020102010111010,
|
|
#GOGOEND
|
|
01102022, //26
|
|
|
|
10201022,
|
|
1022102010002020,
|
|
10201021,
|
|
04443022,
|
|
|
|
10201022,
|
|
1022102010001000,
|
|
500000000000000008000000000000100000200000200000,
|
|
10210125,
|
|
|
|
000000000000000000000000000000000000000008000000,
|
|
03443022, //36
|
|
|
|
#GOGOSTART
|
|
3002202030022011,
|
|
2020120210001020,
|
|
1001102010011011,
|
|
2010221040002020,
|
|
|
|
3002202030022011,
|
|
2020120210001020,
|
|
1001102010011011,
|
|
2011201040002020, //44
|
|
|
|
3002202030022011,
|
|
2020120210001020,
|
|
1001102010011011,
|
|
2010221040002020,
|
|
|
|
3002202030022011,
|
|
2020120210001010,
|
|
2011102011102020,
|
|
1022202010004000, //52
|
|
|
|
3020102010111010,
|
|
0010200010111000,
|
|
1020102010111010,
|
|
0010200020111000,
|
|
|
|
1020102010111010,
|
|
0010200010111000,
|
|
1020102010111010,
|
|
#GOGOEND
|
|
01102020, //60
|
|
|
|
10001006,
|
|
000000000000000000000000000000000008000000000000,
|
|
10001007,
|
|
0081,
|
|
|
|
10001006,
|
|
000000000000000000000000000000000008000000000000,
|
|
10001007,
|
|
0008, //68
|
|
|
|
#GOGOSTART
|
|
3020302030111030,
|
|
0030400030111000,
|
|
3020302030111030,
|
|
0030400040111000,
|
|
|
|
3020302030111030,
|
|
0030400030111000,
|
|
3020302030111030,
|
|
0010100020112000, //76
|
|
|
|
3011101110201120,
|
|
1022101011111000,
|
|
3011101110201120,
|
|
1022101011111000,
|
|
|
|
3011101110201120,
|
|
1022101011111000,
|
|
40004334,
|
|
0,
|
|
#GOGOEND
|
|
0,
|
|
0, //86
|
|
#END
|
|
|
|
|
|
COURSE:Hard
|
|
LEVEL:5
|
|
BALLOON:36,7,10
|
|
SCOREINIT:2570
|
|
SCOREDIFF:0
|
|
|
|
#START
|
|
500000000000000000000008000000000000000000000000,
|
|
000050000000000000000000000800000000000000000000,
|
|
|
|
#GOGOSTART
|
|
30101111,
|
|
01201110,
|
|
10101111,
|
|
01202110,
|
|
|
|
10101111,
|
|
01201110,
|
|
10101113,
|
|
#GOGOEND
|
|
03, //10
|
|
|
|
10202022,
|
|
10010010,
|
|
10202022,
|
|
10220220,
|
|
|
|
10202022,
|
|
10010010,
|
|
1222,
|
|
10221220, //18
|
|
|
|
#GOGOSTART
|
|
30101111,
|
|
01201110,
|
|
10101111,
|
|
01202110,
|
|
|
|
10101111,
|
|
01201110,
|
|
10101113,
|
|
#GOGOEND
|
|
0222, //26
|
|
|
|
10101022,
|
|
01101020,
|
|
10101022,
|
|
03333020,
|
|
|
|
10101022,
|
|
01111010,
|
|
7,
|
|
0,
|
|
|
|
00000008,
|
|
03333022, //36
|
|
|
|
#GOGOSTART
|
|
30223001,
|
|
1010110110001020,
|
|
10121011,
|
|
21214022,
|
|
|
|
30223001,
|
|
1010110110001020,
|
|
10121011,
|
|
21214022, //44
|
|
|
|
30223001,
|
|
1010110110001020,
|
|
10121011,
|
|
21214022,
|
|
|
|
30223001,
|
|
1010110110001000,
|
|
21121120,
|
|
12221040, //52
|
|
|
|
30101111,
|
|
01201110,
|
|
10101111,
|
|
01202110,
|
|
|
|
10101111,
|
|
01201110,
|
|
10101113,
|
|
#GOGOEND
|
|
0022, //60
|
|
|
|
10001005,
|
|
000000000000000000000000000000000008000000000000,
|
|
10001007,
|
|
0081,
|
|
|
|
10001005,
|
|
000000000000000000000000000000000008000000000000,
|
|
10001007,
|
|
0008, //68
|
|
|
|
#GOGOSTART
|
|
30301111,
|
|
01203330,
|
|
30301111,
|
|
01204330,
|
|
|
|
30301111,
|
|
01203330,
|
|
30303333,
|
|
0222, //76
|
|
|
|
30302223,
|
|
03403330,
|
|
30302223,
|
|
03404330,
|
|
|
|
30302223,
|
|
03403330,
|
|
40003334,
|
|
0,
|
|
#GOGOEND
|
|
0,
|
|
0, //86
|
|
#END
|
|
|
|
|
|
COURSE:Normal
|
|
LEVEL:3
|
|
BALLOON:25
|
|
SCOREINIT:4340
|
|
SCOREDIFF:0
|
|
|
|
#START
|
|
500000000000000000000008000000000000000000000000,
|
|
000050000000000000000000000800000000000000000000,
|
|
|
|
#GOGOSTART
|
|
30101001,
|
|
0110,
|
|
10101001,
|
|
0110,
|
|
|
|
10101001,
|
|
0110,
|
|
10101003,
|
|
#GOGOEND
|
|
0, //10
|
|
|
|
11,
|
|
1,
|
|
11,
|
|
10020020,
|
|
|
|
11,
|
|
1,
|
|
11,
|
|
1110, //18
|
|
|
|
#GOGOSTART
|
|
30101001,
|
|
0110,
|
|
10101001,
|
|
0110,
|
|
|
|
10101001,
|
|
0110,
|
|
10101003,
|
|
#GOGOEND
|
|
0, //26
|
|
|
|
11,
|
|
1110,
|
|
11,
|
|
03003000,
|
|
|
|
11,
|
|
1110,
|
|
7,
|
|
0,
|
|
|
|
00000008,
|
|
03003000, //36
|
|
|
|
#GOGOSTART
|
|
30203001,
|
|
1110,
|
|
10201001,
|
|
1130,
|
|
|
|
30203001,
|
|
1110,
|
|
10201001,
|
|
1140,//44
|
|
|
|
30203001,
|
|
1110,
|
|
10201001,
|
|
1130,
|
|
|
|
30203001,
|
|
1110,
|
|
11101110,
|
|
1114, //52
|
|
|
|
30101001,
|
|
0110,
|
|
10101001,
|
|
0110,
|
|
|
|
10101001,
|
|
0110,
|
|
10101003,
|
|
#GOGOEND
|
|
0, //60
|
|
|
|
10001005,
|
|
000000000000000000000000000000000008000000000000,
|
|
10001006,
|
|
000000000000000000000008000000000000000000000000,
|
|
|
|
10001005,
|
|
000000000000000000000000000000000008000000000000,
|
|
10001006,
|
|
000000000000000000000000000000000008000000000000, //68
|
|
|
|
#GOGOSTART
|
|
30101101,
|
|
01101000,
|
|
30101101,
|
|
01101000,
|
|
|
|
30101101,
|
|
01101000,
|
|
30101103,
|
|
0, //76
|
|
|
|
30101101,
|
|
01101110,
|
|
30101101,
|
|
01101110,
|
|
|
|
30101101,
|
|
01101110,
|
|
40003333,
|
|
0,
|
|
#GOGOEND
|
|
0,
|
|
0, //86
|
|
#END
|
|
|
|
|
|
COURSE:Easy
|
|
LEVEL:2
|
|
BALLOON:20
|
|
SCOREINIT:7530
|
|
SCOREDIFF:0
|
|
|
|
#START
|
|
500000000000000000000008000000000000000000000000,
|
|
000050000000000000000000000800000000000000000000,
|
|
|
|
#GOGOSTART
|
|
31,
|
|
01,
|
|
11,
|
|
01,
|
|
|
|
11,
|
|
01,
|
|
10001003,
|
|
#GOGOEND
|
|
0, //10
|
|
|
|
11,
|
|
1,
|
|
1,
|
|
1,
|
|
|
|
11,
|
|
1,
|
|
1,
|
|
11, //18
|
|
|
|
#GOGOSTART
|
|
31,
|
|
01,
|
|
11,
|
|
01,
|
|
|
|
11,
|
|
01,
|
|
10001003,
|
|
#GOGOEND
|
|
0, //26
|
|
|
|
11,
|
|
1,
|
|
11,
|
|
03,
|
|
|
|
11,
|
|
1,
|
|
7,
|
|
0,
|
|
|
|
00000008,
|
|
03, //36
|
|
|
|
#GOGOSTART
|
|
33,
|
|
1110,
|
|
11,
|
|
1130,
|
|
|
|
33,
|
|
1110,
|
|
11,
|
|
1140, //44
|
|
|
|
33,
|
|
1110,
|
|
11,
|
|
1130,
|
|
|
|
33,
|
|
1110,
|
|
11,
|
|
1130, //52
|
|
|
|
31,
|
|
01,
|
|
11,
|
|
01,
|
|
|
|
11,
|
|
01,
|
|
10001003,
|
|
#GOGOEND
|
|
0, //60
|
|
|
|
10001005,
|
|
000000000000000000000000000008000000000000000000,
|
|
10001005,
|
|
000000000000000000000008000000000000000000000000,
|
|
|
|
10001005,
|
|
000000000000000000000000000008000000000000000000,
|
|
10001005,
|
|
000000000000000000000000000008000000000000000000, //68
|
|
|
|
#GOGOSTART
|
|
33,
|
|
03,
|
|
33,
|
|
03,
|
|
|
|
33,
|
|
03,
|
|
30003003,
|
|
0, //76
|
|
|
|
3330,
|
|
03,
|
|
3330,
|
|
03,
|
|
|
|
3330,
|
|
03,
|
|
40003003,
|
|
0,
|
|
#GOGOEND
|
|
0,
|
|
0, //86
|
|
#END |