538 lines
5.9 KiB
Plaintext
538 lines
5.9 KiB
Plaintext
//TJADB Project
|
|
TITLE:Zattou, Bokura no Machi
|
|
TITLEJA:雑踏、僕らの街
|
|
SUBTITLE:--Girls Band Cry
|
|
SUBTITLEJA:「ガールズバンドクライ」より
|
|
BPM:171
|
|
WAVE:Zattou Bokura no Machi.ogg
|
|
OFFSET:-1.958
|
|
DEMOSTART:48.090
|
|
|
|
COURSE:Edit
|
|
LEVEL:9
|
|
BALLOON:
|
|
SCOREINIT:1710
|
|
SCOREDIFF:0
|
|
|
|
#START
|
|
30002002,
|
|
10202012,
|
|
3021002020001020,
|
|
1021002021001020, //4
|
|
|
|
1022122212221022,
|
|
1022112211221122,
|
|
1022111211121112,
|
|
0,
|
|
0,
|
|
|
|
#GOGOSTART
|
|
1021102010112020,
|
|
1021202212212202,
|
|
1022221110212020,
|
|
1011201121121111, //13
|
|
#GOGOEND
|
|
|
|
#MEASURE 3/4
|
|
100202200000,
|
|
201001001011,
|
|
201202200010,
|
|
201001102011,
|
|
|
|
100202200000,
|
|
201001001011,
|
|
201202200010,
|
|
200000100000100200000000500008000000, //21
|
|
|
|
100120112020,
|
|
100010111010,
|
|
200120102010,
|
|
200012221022,
|
|
|
|
100120112020,
|
|
100010111010,
|
|
100120102011,
|
|
#MEASURE 4/4
|
|
100000100000100000500000000000000000000008000000, //29
|
|
|
|
12121212,
|
|
1020102212201020,
|
|
12121212,
|
|
1020102212201020,
|
|
|
|
#MEASURE 3/4
|
|
101112201111,
|
|
122022112211,
|
|
102111201222,
|
|
#MEASURE 4/4
|
|
12213333,
|
|
2020202011012000, //38
|
|
|
|
#GOGOSTART
|
|
1010201121102011,
|
|
1010201120201111,
|
|
2010201121102010,
|
|
1020102111102000,
|
|
|
|
1010201110201121,
|
|
1010201110201121,
|
|
1020101111201020,
|
|
1111221211111111, //46
|
|
|
|
1010201121102011,
|
|
1010201111201111,
|
|
2010201121102010,
|
|
1020102111102000,
|
|
|
|
1010201110201121,
|
|
1010201110201121,
|
|
1020101111201020,
|
|
1111221211112222, //54
|
|
|
|
1020102211201020,
|
|
1011221120101020,
|
|
1020102211201020,
|
|
1010202212201011,
|
|
|
|
1020102211221020,
|
|
1010201121121020,
|
|
1010111111111010,
|
|
#GOGOEND
|
|
0,
|
|
0, //63
|
|
|
|
#GOGOSTART
|
|
11111111,
|
|
1112120212221111,
|
|
1012012012012012,
|
|
0030030040040040,
|
|
#GOGOEND
|
|
|
|
0,
|
|
0,
|
|
0, //70
|
|
#END
|
|
|
|
|
|
COURSE:Oni
|
|
LEVEL:8
|
|
BALLOON:
|
|
SCOREINIT:1890
|
|
SCOREDIFF:0
|
|
|
|
#START
|
|
1002001001022020,
|
|
1002002000101020,
|
|
1002001001022020,
|
|
1002002000101020, //4
|
|
|
|
1012012012012020,
|
|
1012012012101020,
|
|
1001202010112222,
|
|
1,
|
|
0000000040004022,
|
|
|
|
#GOGOSTART
|
|
1001221020112010,
|
|
1011221122112010,
|
|
2011201122112210,
|
|
1011111122112020, //13
|
|
#GOGOEND
|
|
|
|
#MEASURE 3/4
|
|
100100102010,
|
|
200000001011,
|
|
200200201010,
|
|
110120,
|
|
|
|
101100102010,
|
|
200000001011,
|
|
200200201010,
|
|
202200202000, //21
|
|
|
|
100110201010,
|
|
202011,
|
|
200110201010,
|
|
202012,
|
|
|
|
100110201010,
|
|
202011,
|
|
200110201010,
|
|
#MEASURE 4/4
|
|
2020202011102000, //29
|
|
|
|
1011011011011010,
|
|
1020201022021020,
|
|
1011011011011010,
|
|
2020102022122020,
|
|
|
|
#MEASURE 3/4
|
|
302202200020,
|
|
302202200010,
|
|
401101100010,
|
|
#MEASURE 4/4
|
|
4011011000101020,
|
|
0000001020120020, //38
|
|
|
|
#GOGOSTART
|
|
1001201120110220,
|
|
1002201120201010,
|
|
2010201020112011,
|
|
12221120,
|
|
|
|
1111221111201000,
|
|
1111222211201000,
|
|
1020112010201120,
|
|
1020112011010110, //46
|
|
|
|
1001201121010220,
|
|
1002201120201010,
|
|
2010201020112011,
|
|
1020202210102000,
|
|
|
|
1011221111201000,
|
|
1111222211201000,
|
|
1020112010201120,
|
|
1020202011102020, //54
|
|
|
|
1022011011022020,
|
|
1011112000101120,
|
|
1022011011022010,
|
|
1011222000101120,
|
|
|
|
1012012012012220,
|
|
1012012012101020,
|
|
1001202011112220,
|
|
#GOGOEND
|
|
1,
|
|
0000000040004022, //63
|
|
|
|
#GOGOSTART
|
|
1011201110102010,
|
|
1011221111221011,
|
|
1004003004003004,
|
|
000000600000000000000000000000000000000000000008,
|
|
#GOGOEND
|
|
|
|
0,
|
|
0,
|
|
0, //70
|
|
#END
|
|
|
|
|
|
COURSE:Hard
|
|
LEVEL:6
|
|
BALLOON:4
|
|
SCOREINIT:3090
|
|
SCOREDIFF:0
|
|
|
|
#START
|
|
1001001000002000,
|
|
1002002000101000,
|
|
1001001000002000,
|
|
1002002000101000, //4
|
|
|
|
1001001002002000,
|
|
1001001002002000,
|
|
500000000000000000000000000008000000000000000000,
|
|
0,
|
|
0044,
|
|
|
|
#GOGOSTART
|
|
1001101010102000,
|
|
1002201010202000,
|
|
1001101010102000,
|
|
1002201010102000, //13
|
|
#GOGOEND
|
|
|
|
#MEASURE 3/4
|
|
100100102000,
|
|
201,
|
|
200200201000,
|
|
102,
|
|
|
|
100100102000,
|
|
201,
|
|
200200201000,
|
|
500000000000000000000008000000000000, //21
|
|
|
|
101211,
|
|
221,
|
|
201211,
|
|
222,
|
|
|
|
101211,
|
|
221,
|
|
201211,
|
|
#MEASURE 4/4
|
|
2000102010101110, //29
|
|
|
|
1111,
|
|
10212020,
|
|
1111,
|
|
20212020,
|
|
|
|
#MEASURE 3/4
|
|
3210,
|
|
3210,
|
|
4120,
|
|
#MEASURE 4/4
|
|
4001002000101070,
|
|
0000008020020020, //38
|
|
|
|
#GOGOSTART
|
|
1000101020020020,
|
|
10112210,
|
|
20212021,
|
|
2020002220002000,
|
|
|
|
1110111011101000,
|
|
1110111011101000,
|
|
22120212,
|
|
0020102010010010, //46
|
|
|
|
1000101020020020,
|
|
10112210,
|
|
20212021,
|
|
2020002220002000,
|
|
|
|
1010111010101000,
|
|
1110111011101000,
|
|
22120212,
|
|
02120122, //54
|
|
|
|
1001001002022000,
|
|
1002002000101020,
|
|
1001001002022000,
|
|
1002002000101020,
|
|
|
|
1001001002002000,
|
|
1001001002002000,
|
|
500000000000000000000000000008000000000000000000,
|
|
#GOGOEND
|
|
1,
|
|
0044, //63
|
|
|
|
#GOGOSTART
|
|
1011101010102000,
|
|
1011101010202000,
|
|
3004003004003004,
|
|
000000600000000000000000000000000000000000000008,
|
|
#GOGOEND
|
|
|
|
0,
|
|
0,
|
|
0, //70
|
|
#END
|
|
|
|
|
|
COURSE:Normal
|
|
LEVEL:5
|
|
BALLOON:3
|
|
SCOREINIT:4840
|
|
SCOREDIFF:0
|
|
|
|
#START
|
|
10010000,
|
|
1001001000000000,
|
|
10010000,
|
|
1001001000000000, //4
|
|
|
|
1001001000002000,
|
|
1001001000002000,
|
|
500000000000000000000000000008000000000000000000,
|
|
1,
|
|
0004,
|
|
|
|
#GOGOSTART
|
|
10111010,
|
|
10222000,
|
|
10111010,
|
|
10222000, //13
|
|
#GOGOEND
|
|
|
|
#MEASURE 3/4
|
|
100110,
|
|
1,
|
|
200220,
|
|
2,
|
|
|
|
100110,
|
|
1,
|
|
200220,
|
|
500000000000000000000008000000000000, //21
|
|
|
|
101011,
|
|
101,
|
|
202022,
|
|
202,
|
|
|
|
101011,
|
|
101,
|
|
202022,
|
|
#MEASURE 4/4
|
|
500000000000000000000000000000000000000008000000, //29
|
|
|
|
1111,
|
|
1222,
|
|
1111,
|
|
1222,
|
|
|
|
#MEASURE 3/4
|
|
31,
|
|
31,
|
|
42,
|
|
#MEASURE 4/4
|
|
40020007,
|
|
00080000, //38
|
|
|
|
#GOGOSTART
|
|
10011000,
|
|
10011000,
|
|
2222,
|
|
22002000,
|
|
|
|
11101110,
|
|
22202220,
|
|
10110011,
|
|
00110020, //46
|
|
|
|
10011000,
|
|
10011000,
|
|
2222,
|
|
22002000,
|
|
|
|
11101110,
|
|
22202220,
|
|
10110011,
|
|
00110020, //54
|
|
|
|
1001001000002000,
|
|
1001001000000000,
|
|
1001001000002000,
|
|
1001001000000000,
|
|
|
|
1001001000002000,
|
|
1001001000002000,
|
|
500000000000000000000000000008000000000000000000,
|
|
#GOGOEND
|
|
1,
|
|
0004, //63
|
|
|
|
#GOGOSTART
|
|
10101110,
|
|
11111010,
|
|
3003003003003003,
|
|
000000600000000000000000000000000000000000000008,
|
|
#GOGOEND
|
|
|
|
0,
|
|
0,
|
|
0, //70
|
|
#END
|
|
|
|
|
|
COURSE:Easy
|
|
LEVEL:3
|
|
BALLOON:2
|
|
SCOREINIT:8910
|
|
SCOREDIFF:0
|
|
|
|
#START
|
|
10010000,
|
|
1,
|
|
10010000,
|
|
1, //4
|
|
|
|
10010000,
|
|
10010000,
|
|
500000000000000000000000000008000000000000000000,
|
|
1,
|
|
0004,
|
|
|
|
#GOGOSTART
|
|
1111,
|
|
12,
|
|
1111,
|
|
12, //13
|
|
#GOGOEND
|
|
|
|
#MEASURE 3/4
|
|
1,
|
|
1,
|
|
2,
|
|
2,
|
|
|
|
1,
|
|
1,
|
|
2,
|
|
2, //21
|
|
|
|
101,
|
|
1,
|
|
202,
|
|
2,
|
|
|
|
101,
|
|
1,
|
|
202,
|
|
#MEASURE 4/4
|
|
500000000000000000000000000008000000000000000000, //29
|
|
|
|
1,
|
|
22,
|
|
1,
|
|
22,
|
|
|
|
#MEASURE 3/4
|
|
3,
|
|
3,
|
|
4,
|
|
#MEASURE 4/4
|
|
40000007,
|
|
00080000, //38
|
|
|
|
#GOGOSTART
|
|
11,
|
|
11,
|
|
2222,
|
|
2,
|
|
|
|
1110,
|
|
2220,
|
|
1101,
|
|
0100, //46
|
|
|
|
11,
|
|
11,
|
|
2222,
|
|
2,
|
|
|
|
1110,
|
|
2220,
|
|
1101,
|
|
0100, //54
|
|
|
|
10010000,
|
|
1,
|
|
10010000,
|
|
1,
|
|
|
|
10010000,
|
|
10010000,
|
|
500000000000000000000000000008000000000000000000,
|
|
#GOGOEND
|
|
1,
|
|
0004, //63
|
|
|
|
#GOGOSTART
|
|
1011,
|
|
1110,
|
|
30030030,
|
|
000000600000000000000000000000000000000000000008,
|
|
#GOGOEND
|
|
|
|
0,
|
|
0,
|
|
0, //70
|
|
#END |