1023 lines
13 KiB
Plaintext
1023 lines
13 KiB
Plaintext
//TJADB Project
|
|
TITLE:Minna no Uta
|
|
TITLEJA:みんなのうた
|
|
SUBTITLE:--Taku Inoue feat. SaChi (harineko) / Synchronica
|
|
SUBTITLEJA:Taku Inoue feat. SaChi (harineko)「シンクロニカ」より
|
|
BPM:174
|
|
WAVE:Minna no Uta.ogg
|
|
OFFSET:-1.902
|
|
DEMOSTART:67.389
|
|
|
|
COURSE:Oni
|
|
LEVEL:10
|
|
BALLOON:5,5,5,5,5,5,21
|
|
SCOREINIT:1200
|
|
SCOREDIFF:0
|
|
|
|
#START
|
|
10010011,
|
|
02022200,
|
|
10010011,
|
|
02221200,
|
|
|
|
10010011,
|
|
02021200,
|
|
1020202220002020,
|
|
000000200000000000500000000000000008000000000000, //8
|
|
|
|
3000002220000010,
|
|
0020201020202220,
|
|
3000002220002020,
|
|
122222122222,
|
|
|
|
3000002220000020,
|
|
1020221120022211,
|
|
1000001220201110,
|
|
500000000000000008000000400000000000000000000000, //16
|
|
|
|
11014111,
|
|
01014110,
|
|
11014111,
|
|
0010001040221110,
|
|
|
|
11014110,
|
|
1121101040101220,
|
|
1220100040101010,
|
|
0011201040102220, //24
|
|
|
|
1022202030202020,
|
|
1020202030202220,
|
|
1022202030202220,
|
|
1020202030202220,
|
|
|
|
3000000030202220,
|
|
3020202030202220,
|
|
32323232,
|
|
1222122210000000, //32
|
|
|
|
#SECTION
|
|
#BRANCHSTART p,90,90
|
|
#N
|
|
#MEASURE 2/4
|
|
7008,
|
|
#MEASURE 6/4
|
|
#GOGOSTART
|
|
211211211221,
|
|
#MEASURE 4/4
|
|
2020102020102210,
|
|
1020102020112010,
|
|
#GOGOEND
|
|
|
|
#MEASURE 2/4
|
|
3,
|
|
#MEASURE 6/4
|
|
#GOGOSTART
|
|
201010201010201010202210,
|
|
#MEASURE 4/4
|
|
2220102020102020,
|
|
12121210, //n40
|
|
#GOGOEND
|
|
|
|
#MEASURE 2/4
|
|
7008,
|
|
#MEASURE 6/4
|
|
#GOGOSTART
|
|
211211211221,
|
|
#MEASURE 4/4
|
|
2020102020102210,
|
|
12122121,
|
|
#GOGOEND
|
|
|
|
#MEASURE 2/4
|
|
2444,
|
|
#MEASURE 6/4
|
|
#GOGOSTART
|
|
211211211221,
|
|
#MEASURE 4/4
|
|
2210101010201020,
|
|
300000400000300000400000600000000000000008000000,
|
|
#GOGOEND
|
|
|
|
#MEASURE 2/4
|
|
1001, //n49
|
|
|
|
#E
|
|
#MEASURE 2/4
|
|
111122221111,
|
|
#MEASURE 6/4
|
|
#GOGOSTART
|
|
211211211221,
|
|
#MEASURE 4/4
|
|
2020102020102210,
|
|
1020102020112010,
|
|
#GOGOEND
|
|
|
|
#MEASURE 2/4
|
|
3,
|
|
#MEASURE 6/4
|
|
#GOGOSTART
|
|
201010201010201010202210,
|
|
#MEASURE 4/4
|
|
2220102020102020,
|
|
12121210, //e40
|
|
#GOGOEND
|
|
|
|
#MEASURE 2/4
|
|
111122221111,
|
|
#MEASURE 6/4
|
|
#GOGOSTART
|
|
211211211221,
|
|
#MEASURE 4/4
|
|
2020102020102210,
|
|
12122121,
|
|
#GOGOEND
|
|
|
|
#MEASURE 2/4
|
|
2444,
|
|
#MEASURE 6/4
|
|
#GOGOSTART
|
|
211211211221,
|
|
#MEASURE 4/4
|
|
2210101010201020,
|
|
300000400000300000400000600000000000000008000000,
|
|
#GOGOEND
|
|
|
|
#MEASURE 2/4
|
|
1001, //e49
|
|
|
|
#M
|
|
#MEASURE 2/4
|
|
111122221111,
|
|
#MEASURE 6/4
|
|
#GOGOSTART
|
|
211211211221,
|
|
#MEASURE 4/4
|
|
2020102020102210,
|
|
1020102020112010,
|
|
#GOGOEND
|
|
|
|
#MEASURE 2/4
|
|
3,
|
|
#MEASURE 6/4
|
|
#GOGOSTART
|
|
201010201010201010202210,
|
|
#MEASURE 4/4
|
|
2220102020102020,
|
|
12121210, //m40
|
|
#GOGOEND
|
|
|
|
#MEASURE 2/4
|
|
111122221111,
|
|
#MEASURE 6/4
|
|
#GOGOSTART
|
|
211211211221,
|
|
#MEASURE 4/4
|
|
2020102020102210,
|
|
12122121,
|
|
#GOGOEND
|
|
|
|
#MEASURE 2/4
|
|
2444,
|
|
#MEASURE 6/4
|
|
#GOGOSTART
|
|
211211211221,
|
|
#MEASURE 4/4
|
|
2210101010201020,
|
|
300000400000300000400000600000000000000008000000,
|
|
#GOGOEND
|
|
|
|
#MEASURE 2/4
|
|
1001, //m49
|
|
|
|
#SECTION
|
|
#BRANCHSTART p,101,102
|
|
#N
|
|
#BARLINEOFF
|
|
41,
|
|
#BARLINEON
|
|
#MEASURE 4/4
|
|
0011100040000000,
|
|
10014010,
|
|
0011101040101000,
|
|
|
|
10014010,
|
|
0011100040101000,
|
|
5,
|
|
000000000008000000000000300000200000200200200000, //n57
|
|
|
|
1022202030202210,
|
|
12223212,
|
|
1022202030202210,
|
|
12223212,
|
|
|
|
10012112,
|
|
11211221,
|
|
2020102020102210,
|
|
12124000,
|
|
0, //n66
|
|
|
|
#E
|
|
#BARLINEOFF
|
|
41,
|
|
#BARLINEON
|
|
#MEASURE 4/4
|
|
0011100040000000,
|
|
10014010,
|
|
0011101040101000,
|
|
|
|
10014010,
|
|
0011100040101000,
|
|
5,
|
|
000000000008000000000000300000200000200200200000, //e57
|
|
|
|
1022202030202210,
|
|
12223212,
|
|
1022202030202210,
|
|
12223212,
|
|
|
|
10012112,
|
|
11211221,
|
|
2020102020102210,
|
|
12124000,
|
|
0, //e66
|
|
|
|
#M
|
|
#BARLINEOFF
|
|
41,
|
|
#BARLINEON
|
|
#MEASURE 4/4
|
|
0011100040000000,
|
|
10014010,
|
|
0011101040101000,
|
|
|
|
10014010,
|
|
0011100040101000,
|
|
5,
|
|
000000000008000000000000300000200000200200200000, //m57
|
|
|
|
1022202030202210,
|
|
12223212,
|
|
1022202030202210,
|
|
12223212,
|
|
|
|
10012112,
|
|
11211221,
|
|
2020102020102210,
|
|
12124000,
|
|
0, //m66
|
|
|
|
#SECTION
|
|
#BRANCHSTART p,75,90
|
|
#N
|
|
#MEASURE 2/4
|
|
7008,
|
|
#MEASURE 6/4
|
|
#GOGOSTART
|
|
200020002000100010001000200020002000100000000000200200200200100100100000,
|
|
#MEASURE 4/4
|
|
200020002000100010000000200200100100200200100100,
|
|
220211300000,
|
|
#GOGOEND
|
|
|
|
#MEASURE 2/4
|
|
2,
|
|
#MEASURE 6/4
|
|
#GOGOSTART
|
|
200020001000200000000000200020001000200100100000100020001000200010000000,
|
|
#MEASURE 4/4
|
|
200020002000200020000000100100100000100100200000,
|
|
200200100000200010001000200200100000100100200000, //n74
|
|
#GOGOEND
|
|
|
|
#MEASURE 2/4
|
|
7008,
|
|
#MEASURE 6/4
|
|
#GOGOSTART
|
|
200020002000100010001000200020002000100000000000200200200200100100100000,
|
|
#MEASURE 4/4
|
|
200020002000100010000000200200100100200200100100,
|
|
120211300000,
|
|
#GOGOEND
|
|
|
|
#MEASURE 2/4
|
|
10222000,
|
|
#MEASURE 6/4
|
|
#GOGOSTART
|
|
200020001000200000000000200020001000200100100000100020001000200010000000,
|
|
#MEASURE 4/4
|
|
200020002000200020000000100100100000100100200000,
|
|
200200100000200010001000500000000000000008000000, //n82
|
|
|
|
#E
|
|
#MEASURE 2/4
|
|
7008,
|
|
#MEASURE 6/4
|
|
#GOGOSTART
|
|
200020002000100010001000200020002000100100100100200200200200100100100100,
|
|
#MEASURE 4/4
|
|
200020002000100010001000200200100100200200100100,
|
|
211111300000,
|
|
#GOGOEND
|
|
|
|
#MEASURE 2/4
|
|
22222000,
|
|
#MEASURE 6/4
|
|
#GOGOSTART
|
|
200020001000200020001000200020001000200200100000100020001000200010000000,
|
|
#MEASURE 4/4
|
|
200020001000200020000000100100100000100100100100,
|
|
200200100000200010001000200200100100100100200200, //e74
|
|
#GOGOEND
|
|
|
|
#MEASURE 2/4
|
|
7008,
|
|
#MEASURE 6/4
|
|
#GOGOSTART
|
|
200020002000100010001000200020002000100100100100200200200200100100100100,
|
|
#MEASURE 4/4
|
|
200020002000100010001000200200100100200200100100,
|
|
211111300000,
|
|
#GOGOEND
|
|
|
|
#MEASURE 2/4
|
|
10222220,
|
|
#MEASURE 6/4
|
|
#GOGOSTART
|
|
200020001000200020001000200020001000200200100000100020001000200010000000,
|
|
#MEASURE 4/4
|
|
200020001000200020000000100100100000100100100100,
|
|
200200100000200010001000500000000000000008000000, //e82
|
|
|
|
#M
|
|
#MEASURE 2/4
|
|
111122221111,
|
|
#MEASURE 6/4
|
|
#GOGOSTART
|
|
200010002000100010001000200010001000200100100100200200100100200100100100,
|
|
#MEASURE 4/4
|
|
200010002000200010001000200200100100200100100100,
|
|
212211300000,
|
|
#GOGOEND
|
|
|
|
#MEASURE 2/4
|
|
22222000,
|
|
#MEASURE 6/4
|
|
#GOGOSTART
|
|
200020001000200010001000200020001000200100100100100020001000200010001000,
|
|
#MEASURE 4/4
|
|
200020001000200010002000100200100100100200100100,
|
|
100020001000200010001000200200100100100100200200, //m74
|
|
#GOGOEND
|
|
|
|
#MEASURE 2/4
|
|
111122221111,
|
|
#MEASURE 6/4
|
|
#GOGOSTART
|
|
200010002000100010001000200010001000200100100100200200100100200100100100,
|
|
#MEASURE 4/4
|
|
200010002000200010001000200200100100200100100100,
|
|
211221300000,
|
|
#GOGOEND
|
|
|
|
#MEASURE 2/4
|
|
12222220,
|
|
#MEASURE 6/4
|
|
#GOGOSTART
|
|
200020001000200010001000200020001000200100100100100020001000200010001000,
|
|
#MEASURE 4/4
|
|
200020001000200010002000100200100100100200100100,
|
|
100020001000200010001000500000000000000008000000, //m82
|
|
|
|
#SECTION
|
|
#BRANCHSTART p,75,90
|
|
#N
|
|
1020202010112010,
|
|
0010100010221010,
|
|
1020201010221010,
|
|
0010202010102220,
|
|
|
|
1020202010112010,
|
|
0010201120201010,
|
|
500000000008000000500000000008000000500000000000,
|
|
000000000008000000000000100000200000200000200000, //n90
|
|
|
|
1020202010112010,
|
|
0010202010112010,
|
|
1020001120001120,
|
|
01212222,
|
|
#GOGOEND
|
|
|
|
7,
|
|
0840,
|
|
500000000008000000500000000008000000500000000000,
|
|
000000000008000000000000400000000000000000000000,
|
|
|
|
#MEASURE 6/4
|
|
#GOGOSTART
|
|
301301301301,
|
|
#GOGOEND
|
|
4, //n100
|
|
|
|
#E
|
|
1020202210112010,
|
|
0011100010221110,
|
|
1020221010221010,
|
|
0010202010202220,
|
|
|
|
1020222010112010,
|
|
0011101120201010,
|
|
500000000008000000500000000008000000500000000000,
|
|
000000000008000000000000100000200000200000200000, //e90
|
|
|
|
1020222010112010,
|
|
0011202010112210,
|
|
1020101120101120,
|
|
0010201120202020,
|
|
#GOGOEND
|
|
|
|
10002125,
|
|
000000000000000008000000400000000000000000000000,
|
|
1220202222101120,
|
|
1020202040000000,
|
|
|
|
#MEASURE 6/4
|
|
#GOGOSTART
|
|
302210302210302210300010,
|
|
#GOGOEND
|
|
4, //e100
|
|
|
|
#M
|
|
1020222210112010,
|
|
000000100100100000000000100000202020100100100000,
|
|
1020221210221020,
|
|
0010202010202222,
|
|
|
|
1020222210112010,
|
|
000000100100100000200000100000202020100100100000,
|
|
500000000008000000500000000008000000500000000000,
|
|
000000000008000000000000100000200200200200200000, //m90
|
|
|
|
1020222210112210,
|
|
000000100100100000000000100000101010200200100100,
|
|
1020121120121120,
|
|
0010121120202020,
|
|
#GOGOEND
|
|
|
|
100000000000220100200500,
|
|
000000000000000008000000400000000000000000000000,
|
|
1220202221121121,
|
|
1121212040000000,
|
|
|
|
#MEASURE 6/4
|
|
#GOGOSTART
|
|
300222100300222100300222100300111100,
|
|
#GOGOEND
|
|
4, //m100
|
|
#BRANCHEND
|
|
#END
|
|
|
|
|
|
COURSE:Hard
|
|
LEVEL:6
|
|
BALLOON:4,4,4,4,14
|
|
SCOREINIT:2520
|
|
SCOREDIFF:0
|
|
|
|
#START
|
|
10010010,
|
|
02002200,
|
|
10010010,
|
|
02220200,
|
|
|
|
10010010,
|
|
02002200,
|
|
10022022,
|
|
000000200000000000500000000000000008000000000000, //8
|
|
|
|
30002001,
|
|
02202220,
|
|
30022010,
|
|
222200222200,
|
|
|
|
30022002,
|
|
1020222020002011,
|
|
1000002220002000,
|
|
500000000000000008000000400000000000000000000000, //16
|
|
|
|
10004011,
|
|
01004010,
|
|
10004011,
|
|
01004010,
|
|
|
|
10004011,
|
|
01004010,
|
|
10004011,
|
|
01014012, //24
|
|
|
|
05000000,
|
|
000008000000000000100000400000000000100000200000,
|
|
05000000,
|
|
000008000000000000100000400000000000100000200000,
|
|
|
|
01003000,
|
|
33,
|
|
1111,
|
|
1140, //32
|
|
|
|
#MEASURE 2/4
|
|
7008,
|
|
#MEASURE 6/4
|
|
#GOGOSTART
|
|
201201201201,
|
|
#MEASURE 4/4
|
|
20120120,
|
|
12012111,
|
|
#GOGOEND
|
|
|
|
#MEASURE 2/4
|
|
3,
|
|
#MEASURE 6/4
|
|
#GOGOSTART
|
|
201201201201,
|
|
#MEASURE 4/4
|
|
20120120,
|
|
12212210, //40
|
|
#GOGOEND
|
|
|
|
#MEASURE 2/4
|
|
7008,
|
|
#MEASURE 6/4
|
|
#GOGOSTART
|
|
201201201201,
|
|
#MEASURE 4/4
|
|
20120120,
|
|
12012111,
|
|
#GOGOEND
|
|
|
|
#MEASURE 2/4
|
|
0,
|
|
#MEASURE 6/4
|
|
#GOGOSTART
|
|
401401401401,
|
|
#MEASURE 4/4
|
|
40121212,
|
|
34340000,
|
|
#GOGOEND
|
|
|
|
#MEASURE 2/4
|
|
1, //49
|
|
|
|
#BARLINEOFF
|
|
41,
|
|
#BARLINEON
|
|
#MEASURE 4/4
|
|
01104000,
|
|
1041,
|
|
01104010,
|
|
|
|
1041,
|
|
01104010,
|
|
5,
|
|
000000000008000000000000400000000000000000000000, //57
|
|
|
|
10004011,
|
|
00104011,
|
|
01014011,
|
|
00104011,
|
|
|
|
500000000000000000000000000000000000000008000000,
|
|
00104011,
|
|
5,
|
|
000000000008000000000000400000000000000000000000,
|
|
0, //66
|
|
|
|
#MEASURE 2/4
|
|
7008,
|
|
#MEASURE 6/4
|
|
#GOGOSTART
|
|
200010002000100022202220,
|
|
#MEASURE 4/4
|
|
2121,
|
|
220220300000,
|
|
#GOGOEND
|
|
|
|
#MEASURE 2/4
|
|
0,
|
|
#MEASURE 6/4
|
|
#GOGOSTART
|
|
221100221100101210,
|
|
#MEASURE 4/4
|
|
202010100100000000100000,
|
|
2000200022202220, //74
|
|
#GOGOEND
|
|
|
|
#MEASURE 2/4
|
|
7008,
|
|
#MEASURE 6/4
|
|
#GOGOSTART
|
|
200010002000100022202220,
|
|
#MEASURE 4/4
|
|
2121,
|
|
220220300000,
|
|
#GOGOEND
|
|
|
|
#MEASURE 2/4
|
|
10222000,
|
|
#MEASURE 6/4
|
|
#GOGOSTART
|
|
221100221100101210,
|
|
#MEASURE 4/4
|
|
202010100100000000100000,
|
|
20203001, //82
|
|
|
|
01012021,
|
|
00111212,
|
|
02011021,
|
|
01221121,
|
|
|
|
01012021,
|
|
00101111,
|
|
500000000008000000500000000008000000500000000000,
|
|
000000000008000000000000100000200000200000100000, //90
|
|
|
|
01012021,
|
|
00111212,
|
|
02034034,
|
|
00102222,
|
|
#GOGOEND
|
|
|
|
7,
|
|
0840,
|
|
500000000008000000500000000008000000500000000000,
|
|
000000000008000000000000400000000000000000000000,
|
|
|
|
#MEASURE 6/4
|
|
#GOGOSTART
|
|
3333,
|
|
#GOGOEND
|
|
4, //100
|
|
#END
|
|
|
|
|
|
COURSE:Normal
|
|
LEVEL:6
|
|
BALLOON:3,3,3,3,10
|
|
SCOREINIT:4140
|
|
SCOREDIFF:0
|
|
|
|
#START
|
|
10010010,
|
|
01001000,
|
|
10010010,
|
|
01001000,
|
|
|
|
10010010,
|
|
01001000,
|
|
10020020,
|
|
02002000, //8
|
|
|
|
30010010,
|
|
02002000,
|
|
30010010,
|
|
02002000,
|
|
|
|
30010010,
|
|
02022000,
|
|
10020020,
|
|
500000000000000000000008000000000000000000000000, //16
|
|
|
|
1041,
|
|
01004000,
|
|
1041,
|
|
01004000,
|
|
|
|
1041,
|
|
01004000,
|
|
1041,
|
|
01004000, //24
|
|
|
|
5,
|
|
000008000000000000000000400000000000100000000000,
|
|
5,
|
|
000008000000000000000000400000000000100000000000,
|
|
|
|
13,
|
|
33,
|
|
1111,
|
|
1140, //32
|
|
|
|
#MEASURE 2/4
|
|
7008,
|
|
#MEASURE 6/4
|
|
#GOGOSTART
|
|
1111,
|
|
#MEASURE 4/4
|
|
10010010,
|
|
01001110,
|
|
#GOGOEND
|
|
|
|
#MEASURE 2/4
|
|
3,
|
|
#MEASURE 6/4
|
|
#GOGOSTART
|
|
1111,
|
|
#MEASURE 4/4
|
|
10010010,
|
|
01001110,//40
|
|
#GOGOEND
|
|
|
|
#MEASURE 2/4
|
|
7008,
|
|
#MEASURE 6/4
|
|
#GOGOSTART
|
|
1111,
|
|
#MEASURE 4/4
|
|
10010010,
|
|
01001110,
|
|
#GOGOEND
|
|
|
|
#MEASURE 2/4
|
|
0,
|
|
#MEASURE 6/4
|
|
#GOGOSTART
|
|
4444,
|
|
#MEASURE 4/4
|
|
40050000,
|
|
000000000000000008000000000000000000000000000000,
|
|
#GOGOEND
|
|
|
|
#MEASURE 2/4
|
|
1, //49
|
|
|
|
#BARLINEOFF
|
|
41,
|
|
#BARLINEON
|
|
#MEASURE 4/4
|
|
01004000,
|
|
1041,
|
|
01004000,
|
|
|
|
1041,
|
|
01004000,
|
|
5,
|
|
000000000008000000000000400000000000000000000000, //57
|
|
|
|
10004001,
|
|
0140,
|
|
10004001,
|
|
0140,
|
|
|
|
500000000000000000000000000000000000000008000000,
|
|
0140,
|
|
5,
|
|
000000000008000000000000400000000000000000000000,
|
|
0, //66
|
|
|
|
#MEASURE 2/4
|
|
7008,
|
|
#MEASURE 6/4
|
|
#GOGOSTART
|
|
212122,
|
|
#MEASURE 4/4
|
|
1121,
|
|
2130,
|
|
#GOGOEND
|
|
|
|
#MEASURE 2/4
|
|
0,
|
|
#MEASURE 6/4
|
|
#GOGOSTART
|
|
212122,
|
|
#MEASURE 4/4
|
|
2121,
|
|
20202210, //74
|
|
#GOGOEND
|
|
|
|
#MEASURE 2/4
|
|
7008,
|
|
#MEASURE 6/4
|
|
#GOGOSTART
|
|
212122,
|
|
#MEASURE 4/4
|
|
1121,
|
|
2130,
|
|
#GOGOEND
|
|
|
|
#MEASURE 2/4
|
|
0,
|
|
#MEASURE 6/4
|
|
#GOGOSTART
|
|
212122,
|
|
#MEASURE 4/4
|
|
2121,
|
|
2230, //82
|
|
|
|
10001011,
|
|
00102001,
|
|
01001011,
|
|
00102001,
|
|
|
|
01001011,
|
|
0120,
|
|
500000000008000000500000000008000000500000000000,
|
|
000000000008000000000000000000000000000000100000, //90
|
|
|
|
01001011,
|
|
00102001,
|
|
01033033,
|
|
0122,
|
|
#GOGOEND
|
|
|
|
7,
|
|
0840,
|
|
500000000008000000500000000008000000500000000000,
|
|
000000000008000000000000400000000000000000000000,
|
|
|
|
#MEASURE 6/4
|
|
#GOGOSTART
|
|
3333,
|
|
#GOGOEND
|
|
4, //100
|
|
#END
|
|
|
|
|
|
COURSE:Easy
|
|
LEVEL:4
|
|
BALLOON:8
|
|
SCOREINIT:5540
|
|
SCOREDIFF:0
|
|
|
|
#START
|
|
1001,
|
|
01,
|
|
1001,
|
|
01,
|
|
|
|
1001,
|
|
01,
|
|
1001,
|
|
01, //8
|
|
|
|
3001,
|
|
02,
|
|
3001,
|
|
02,
|
|
|
|
3001,
|
|
02,
|
|
12,
|
|
500000000000000000000008000000000000000000000000, //16
|
|
|
|
14,
|
|
04,
|
|
14,
|
|
04,
|
|
|
|
14,
|
|
04,
|
|
14,
|
|
04, //24
|
|
|
|
5,
|
|
000008000000000000000000400000000000000000000000,
|
|
5,
|
|
000008000000000000000000400000000000000000000000,
|
|
|
|
13,
|
|
33,
|
|
1111,
|
|
1140, //32
|
|
|
|
#MEASURE 2/4
|
|
0,
|
|
#MEASURE 6/4
|
|
#GOGOSTART
|
|
1111,
|
|
#MEASURE 4/4
|
|
10010010,
|
|
01001000,
|
|
#GOGOEND
|
|
|
|
#MEASURE 2/4
|
|
3,
|
|
#MEASURE 6/4
|
|
#GOGOSTART
|
|
1111,
|
|
#MEASURE 4/4
|
|
10010010,
|
|
01001000, //40
|
|
#GOGOEND
|
|
|
|
#MEASURE 2/4
|
|
0,
|
|
#MEASURE 6/4
|
|
#GOGOSTART
|
|
1111,
|
|
#MEASURE 4/4
|
|
10010010,
|
|
01001000,
|
|
#GOGOEND
|
|
|
|
#MEASURE 2/4
|
|
0,
|
|
#MEASURE 6/4
|
|
#GOGOSTART
|
|
2222,
|
|
#MEASURE 4/4
|
|
20050000,
|
|
000000000000000008000000000000000000000000000000,
|
|
#GOGOEND
|
|
|
|
#MEASURE 2/4
|
|
1, //49
|
|
|
|
#BARLINEOFF
|
|
4,
|
|
#BARLINEON
|
|
#MEASURE 4/4
|
|
04,
|
|
14,
|
|
04,
|
|
|
|
14,
|
|
04,
|
|
5,
|
|
000000000008000000000000000000000000000000000000, //57
|
|
|
|
14,
|
|
0140,
|
|
14,
|
|
0140,
|
|
|
|
500000000000000000000000000000000000000008000000,
|
|
0140,
|
|
5,
|
|
000008000000000000000000400000000000000000000000,
|
|
0, //66
|
|
|
|
#MEASURE 2/4
|
|
0,
|
|
#MEASURE 6/4
|
|
#GOGOSTART
|
|
411111,
|
|
#MEASURE 4/4
|
|
1111,
|
|
1130,
|
|
#GOGOEND
|
|
|
|
#MEASURE 2/4
|
|
0,
|
|
#MEASURE 6/4
|
|
#GOGOSTART
|
|
411120,
|
|
#MEASURE 4/4
|
|
1111,
|
|
1122, //74
|
|
#GOGOEND
|
|
|
|
#MEASURE 2/4
|
|
0,
|
|
#MEASURE 6/4
|
|
#GOGOSTART
|
|
411111,
|
|
#MEASURE 4/4
|
|
1111,
|
|
1130,
|
|
#GOGOEND
|
|
|
|
#MEASURE 2/4
|
|
0,
|
|
#MEASURE 6/4
|
|
#GOGOSTART
|
|
411120,
|
|
#MEASURE 4/4
|
|
1111,
|
|
1130, //82
|
|
|
|
10001001,
|
|
00002001,
|
|
00001001,
|
|
00002001,
|
|
|
|
00001001,
|
|
02,
|
|
500000000008000000500000000008000000500000000000,
|
|
000000000008000000000000000000000000000000100000, //90
|
|
|
|
00001001,
|
|
00002001,
|
|
00001001,
|
|
02,
|
|
#GOGOEND
|
|
|
|
7,
|
|
0840,
|
|
500000000008000000500000000008000000500000000000,
|
|
000000000008000000000000400000000000000000000000,
|
|
|
|
#MEASURE 6/4
|
|
#GOGOSTART
|
|
3333,
|
|
#GOGOEND
|
|
4, //100
|
|
#END |