Files
TJA-by-song-no/tja/1440.tja
2026-03-04 23:59:27 +09:00

773 lines
7.9 KiB
Plaintext

//TJADB Project
TITLE:Daddy's Style -Konya wa Daddy Daddy-
TITLEJA:Daddy's Style -今夜はダディダディ-
SUBTITLE:--Nishiyama Daddy Daddy
SUBTITLEJA:西山ダディダディ
BPM:180
WAVE:Daddy's Style -Konya wa Daddy Daddy-.ogg
OFFSET:-2.804
DEMOSTART:53.385
COURSE:Edit
LEVEL:9
BALLOON:2,2,2,2,2,2,2,2
SCOREINIT:1280
SCOREDIFF:0
#START
0,
0,
10212010,
21201022,
1020202210202022,
1022102210203000, //6
#GOGOSTART
1012102030403040,
1122112040304030,
1012102030403040,
1022102210104000,
1012102030403040,
1122112040304030,
1012102030403040,
1022102210201000, //14
#GOGOEND
1000111020201020,
02121140,
1000111020201020,
01221240,
1011102010002020,
1010202010221000,
1110101010221020,
1022102011204000, //22
1011102000303000,
1011201000304000,
1021101000404000,
2011101000403000,
1011101020102010,
1011101020102010,
1011101020102010,
1211102030304040, //30
10112122,
10112122,
10112125,
000000000000000000000008000000000000200000000000,
10112122,
10112122,
1022102010221020,
1022102210203000, //38
#GOGOSTART
100000100200100000200000101010200000101010200000,
100100200200100100200000202020100000202020100000,
100000100200100000200000101010200000101010200000,
100000200200100000202020100000100000400000000000,
100000100200100000200000101010200000101010200000,
100100200200100100200000202020100000202020100000,
100000100200100000200000101010200000101010200000,
100000200200100000202020100000100000200000100000, //46
#GOGOEND
11212012,
11212012,
1010212010102120,
1112101020004000,
1110400011104000,
1110402011104000,
1110402011104020,
1110112012202220, //54
1110102010002000,
1022101010002000,
11222022,
1012101021112000,
1121102021112020,
1222102022122040,
1110201020201020,
1112101210104000, //62
10112122,
10112122,
10112125,
000000000000000000000008000000000000200000000000,
10112122,
10112122,
1022102010221021,
1022102210102000, //70
#GOGOSTART
100000100200100000200000101010200000101010200000,
100100200200100100200000202020100000202020100000,
100000100200100000200000101010200000101010200000,
100000200200100000202020100000100000400000000000,
100000100200100000200000101010200000101010200000,
100100200200100100200000202020100000202020100000,
100000100200100000200000101010200000101010200000,
100000200200100000202020100000202020
#GOGOEND
100000000000, //78
#GOGOSTART
378210
#GOGOEND
40,
#GOGOSTART
378210
#GOGOEND
20,
1000200010111010,
1012101010004000,
#GOGOSTART
378210
#GOGOEND
40,
#GOGOSTART
378210
#GOGOEND
20,
1020102010111010,
1012101010204000, //86
#GOGOSTART
378210
#GOGOEND
40,
#GOGOSTART
378210
#GOGOEND
20,
10201122,
11201040,
37821040,
37821020,
12221022,
1022101010004000,
0,
0, //96
#END
COURSE:Oni
LEVEL:7
BALLOON:
SCOREINIT:1920
SCOREDIFF:0
#START
0,
0,
10010010,
01201022,
10021002,
12123030, //6
#GOGOSTART
11223434,
1110201040304030,
11223436,
000000000000000000000008000000000000400000000000,
11223434,
1110201040304030,
11223436,
000000000000000000000008000000000000400000000000, //14
#GOGOEND
10012010,
02101040,
10012010,
01201040,
11101020,
10101210,
11111212,
10121040, //22
1011102000102000,
1011102000102000,
2011101000102000,
2011101000102000,
11112020,
11112020,
11112020,
11113040, //30
10202122,
10202122,
10202125,
000000000000000000000008000000000000200000000000,
10202122,
10202122,
10021002,
12123030, //38
#GOGOSTART
11223434,
1110201040304030,
11223436,
000000000000000000000008000000000000400000000000,
11223434,
1110201040304030,
11223436,
000000000000000000000008000000000000400000000000, //46
#GOGOEND
10012020,
10012020,
10012020,
10012020,
11401140,
11401140,
11421142,
12123232, //54
10012010,
12112020,
10012010,
12112020,
3232,
3234,
11212212,
1110100010104000, //62
10202122,
10202122,
10202125,
000000000000000000000008000000000000200000000000,
10202122,
10202122,
10021002,
12123020, //70
#GOGOSTART
33443434,
33434343,
33443436,
000000000000000000000008000000000000400000000000,
33443434,
33434343,
33443436,
000000000000000000000008000000000000
#GOGOEND
400000000000, //78
#GOGOSTART
330210
#GOGOEND
40,
#GOGOSTART
330210
#GOGOEND
20,
1000200010111010,
2011101010004000,
#GOGOSTART
330210
#GOGOEND
40,
#GOGOSTART
330210
#GOGOEND
20,
1020102010111010,
2011101010004000, //86
#GOGOSTART
330210
#GOGOEND
40,
#GOGOSTART
330210
#GOGOEND
20,
1000100010111010,
21101040,
33021040,
33021020,
12101210,
21101040,
0,
0, //96
#END
COURSE:Hard
LEVEL:4
BALLOON:
SCOREINIT:2570
SCOREDIFF:0
#START
0,
0,
10010010,
01002022,
10021002,
1133, //6
#GOGOSTART
11101212,
11202121,
11101215,
000000000000000000000008000000000000000000000000,
11101212,
11202121,
11101215,
000000000000000000000008000000000000000000000000, //14
#GOGOEND
11,
1012,
11,
1012,
11,
1012,
11,
1012, //22
11110120,
11110120,
11110120,
11110120,
1122,
1122,
1122,
1134, //30
10102120,
10102120,
10102125,
000000000000000000000008000000000000200000000000,
10102120,
10102120,
10021002,
1133, //38
#GOGOSTART
11103434,
11204343,
11103436,
000000000000000000000008000000000000000000000000,
11103434,
11204343,
11103436,
000000000000000000000008000000000000000000000000, //46
#GOGOEND
1022,
1022,
11,
1012,
1414,
1414,
1414,
1133, //54
10010010,
10012010,
10010010,
10012010,
33,
3034,
10012010,
11101020, //62
10102120,
10102120,
10102125,
000000000000000000000008000000000000200000000000,
10102120,
10102120,
10021002,
1132, //70
#GOGOSTART
33303434,
33404343,
33303436,
000000000000000000000008000000000000000000000000,
33303434,
33404343,
33303436,
000000000000000000000008000000000000
#GOGOEND
000000000000, //78
#GOGOSTART
330100
#GOGOEND
40,
#GOGOSTART
330100
#GOGOEND
20,
10101110,
11101040,
#GOGOSTART
330100
#GOGOEND
40,
#GOGOSTART
330100
#GOGOEND
20,
10101110,
11101040, //86
#GOGOSTART
330100
#GOGOEND
40,
#GOGOSTART
330100
#GOGOEND
20,
10102220,
1114,
33010040,
33010020,
1122,
1114,
0,
0, //96
#END
COURSE:Normal
LEVEL:4
BALLOON:
SCOREINIT:4400
SCOREDIFF:0
#START
0,
0,
0,
0,
10011001,
1133, //6
#GOGOSTART
1111,
1122,
1115,
000000000000000000000008000000000000000000000000,
1111,
1122,
1115,
000000000000000000000008000000000000000000000000, //14
#GOGOEND
1,
12,
1,
12,
1,
12,
1,
12, //22
10000110,
10000110,
10000110,
10000110,
12,
12,
11,
1130, //30
22,
22,
20002005,
000000000000000000000008000000000000000000000000,
22,
22,
10011001,
1133, //38
#GOGOSTART
11103030,
11104040,
11103060,
000000000000000000000008000000000000000000000000,
11103030,
11104040,
11103060,
000000000000000000000008000000000000000000000000, //46
#GOGOEND
1,
12,
1,
12,
33,
33,
33,
500000000000000000000000000000000008000000000000, //54
1,
12,
1,
12,
33,
33,
12,
1110, //62
22,
22,
20002005,
000000000000000000000008000000000000000000000000,
22,
22,
10011001,
1112, //70
#GOGOSTART
33303030,
33304040,
33303060,
000000000000000000000008000000000000000000000000,
33303030,
33304040,
33303060,
000000000000000000000008000000000000
#GOGOEND
000000000000, //78
#GOGOSTART
301
#GOGOEND
2,
#GOGOSTART
301
#GOGOEND
2,
11,
1110,
#GOGOSTART
301
#GOGOEND
2,
#GOGOSTART
301
#GOGOEND
2,
11,
1110, //86
#GOGOSTART
301
#GOGOEND
2,
#GOGOSTART
301
#GOGOEND
2,
11,
1110,
3012,
3012,
11,
2220,
0,
0, //96
#END
COURSE:Easy
LEVEL:2
BALLOON:
SCOREINIT:7590
SCOREDIFF:0
#START
0,
0,
0,
0,
11,
1110, //6
#GOGOSTART
11,
11,
15,
000000000000000000000008000000000000000000000000,
11,
11,
15,
000000000000000000000008000000000000000000000000, //14
#GOGOEND
1,
0,
1,
0,
1,
11,
1,
11, //22
1,
1,
1,
1,
11,
11,
1,
13, //30
2,
2,
22,
0,
2,
2,
11,
1110, //38
#GOGOSTART
13,
13,
16,
000000000000000000000008000000000000000000000000,
13,
13,
16,
000000000000000000000008000000000000000000000000, //46
#GOGOEND
1,
0,
1,
0,
33,
33,
33,
500000000000000000000000000008000000000000000000, //54
1,
1,
1,
1,
33,
33,
1,
11, //62
2,
2,
22,
0,
2,
2,
11,
1110, //70
#GOGOSTART
33,
33,
36,
000000000000000000000008000000000000000000000000,
33,
33,
36,
000000000000000000000008000000000000
#GOGOEND
000000000000, //78
#GOGOSTART
301
#GOGOEND
0,
#GOGOSTART
301
#GOGOEND
0,
11,
1110,
#GOGOSTART
301
#GOGOEND
0,
#GOGOSTART
301
#GOGOEND
0,
11,
1110, //86
#GOGOSTART
301
#GOGOEND
0,
#GOGOSTART
301
#GOGOEND
0,
11,
1110,
31,
31,
11,
2220,
0,
0, //96
#END