Files
TJA-by-song-no/tja/267.tja
2026-03-04 23:59:27 +09:00

686 lines
9.1 KiB
Plaintext

//TJADB Project
TITLE:STAY TUNE
TITLEJA:STAY TUNE
SUBTITLE:--Suchmos
SUBTITLEJA:Suchmos
BPM:123.09
WAVE:STAY TUNE.ogg
OFFSET:-4.986
DEMOSTART:20.600
//Shinuchi: 9500/7090/3860/2270
COURSE:Oni
LEVEL:7
BALLOON:
SCOREINIT:710,2390
SCOREDIFF:203
#START
2012000020120000,
#BPMCHANGE 122.55
1110202010004000,
#BPMCHANGE 123.32
#SCROLL 0.99
2012000020120000,
#BPMCHANGE 122.45
#SCROLL 1
1110202010004000,
#BPMCHANGE 122.91
2012000020120000,
#BPMCHANGE 123.51
#SCROLL 0.99
1120202010004000,
#BPMCHANGE 123.69
2012000020120000,
#BPMCHANGE 122.23
#SCROLL 1
1120202012002200, //8
#BPMCHANGE 122.5
#GOGOSTART
1001202011202000,
#BPMCHANGE 123.23
#SCROLL 0.99
1110202011202012,
#BPMCHANGE 123.35
500000000000000000000000000000000008000000200000,
#BPMCHANGE 122.8
#SCROLL 1
1110104000400000,
#BPMCHANGE 122.91
1001202011102000,
#BPMCHANGE 122.32
1110201110200020,
#BPMCHANGE 123.47
#SCROLL 0.99
0010202011200040,
#BPMCHANGE 124.47
#SCROLL 0.98
00040000, //16
#GOGOEND
#BPMCHANGE 121.87
#SCROLL 1.01
2012000020120000,
#BPMCHANGE 122.16
#SCROLL 1
1110202010004000,
#BPMCHANGE 123.39
#SCROLL 0.99
2012000020120000,
#BPMCHANGE 123.44
1110202010004000,
#BPMCHANGE 123.28
2012000020120000,
#BPMCHANGE 122.84
#SCROLL 1
1120202010004000,
#BPMCHANGE 123.18
#SCROLL 0.99
2012000020120000,
#BPMCHANGE 123.46
1120202012021020, //24
#BPMCHANGE 122.18
#SCROLL 1
10201210,
#BPMCHANGE 123.32
#SCROLL 0.99
1010222010102220,
#BPMCHANGE 123
#SCROLL 1
1000200012102000,
#BPMCHANGE 122.73
1010222010102220,
#BPMCHANGE 123.3
#SCROLL 0.99
1000200012102000,
#BPMCHANGE 122.66
#SCROLL 1
1010202210104000,
#BPMCHANGE 123.46
#SCROLL 0.99
1010202012102000,
#BPMCHANGE 123.37
1010222010004000, //32
#BPMCHANGE 122.64
#SCROLL 1
1010222010201120,
#BPMCHANGE 122.72
1020100012104000,
1010222010201120,
#BPMCHANGE 123.15
#SCROLL 0.99
1022102010004000,
1012002010120020,
1110202010004000,
#BPMCHANGE 123.46
1012102010120020,
#BPMCHANGE 124.16
1020121020012020, //40
#BPMCHANGE 123.32
1010202210102022,
#BPMCHANGE 122.25
#SCROLL 1
1020100011104000,
1010202210102022,
#BPMCHANGE 123.46
#SCROLL 0.99
1020100011104000,
#BPMCHANGE 122.59
#SCROLL 1
1022102010221020,
#BPMCHANGE 122.5
1020100011104000,
#BPMCHANGE 122.86
1022102010221020,
#BPMCHANGE 123.83
#SCROLL 0.99
1020120011104000, //48
#BPMCHANGE 122.09
#SCROLL 1
#GOGOSTART
1001202011202000,
#BPMCHANGE 122.55
1110202011202012,
#BPMCHANGE 122.86
500000000000000000000000000000000008000000200000,
1110104000400000,
#BPMCHANGE 123.55
#SCROLL 0.99
1001202011102000,
#BPMCHANGE 122.27
#SCROLL 1
1110201120200020,
#BPMCHANGE 123.64
#SCROLL 0.99
1012002010120020,
#BPMCHANGE 124.44
#SCROLL 0.98
1110202010221000, //56
#GOGOEND
#BPMCHANGE 123
#SCROLL 1
4,
0,
0, //59
#END
COURSE:Hard
LEVEL:5
BALLOON:13,13
SCOREINIT:930,4050
SCOREDIFF:293
#START
2002000020020000,
#BPMCHANGE 122.55
1110101010000000,
#BPMCHANGE 123.32
#SCROLL 0.99
2002000020020000,
#BPMCHANGE 122.45
#SCROLL 1
1110101010000000,
#BPMCHANGE 122.91
2002000020020000,
#BPMCHANGE 123.51
#SCROLL 0.99
1110101010000000,
#BPMCHANGE 123.69
2002000020020000,
#BPMCHANGE 122.23
#SCROLL 1
1110101020000000, //8
#BPMCHANGE 122.5
#GOGOSTART
10201120,
#BPMCHANGE 123.23
#SCROLL 0.99
1110200010002020,
#BPMCHANGE 123.35
500000000000000000000000000000000008000000300000,
#BPMCHANGE 122.8
#SCROLL 1
00040400,
#BPMCHANGE 122.91
10201120,
#BPMCHANGE 122.32
10201120,
#BPMCHANGE 123.47
#SCROLL 0.99
10201104,
#BPMCHANGE 124.47
#SCROLL 0.98
0, //16
#GOGOEND
#BPMCHANGE 121.87
#SCROLL 1.01
2002000020020000,
#BPMCHANGE 122.16
#SCROLL 1
1110101010000000,
#BPMCHANGE 123.39
#SCROLL 0.99
2002000020020000,
#BPMCHANGE 123.44
1110101010000000,
#BPMCHANGE 123.28
2002000020020000,
#BPMCHANGE 122.84
#SCROLL 1
1110101010000000,
#BPMCHANGE 123.18
#SCROLL 0.99
2002000020020000,
#BPMCHANGE 123.46
1110101020000000, //24
#BPMCHANGE 122.18
#SCROLL 1
1112,
#BPMCHANGE 123.32
#SCROLL 0.99
10102220,
#BPMCHANGE 123
#SCROLL 1
1202,
#BPMCHANGE 122.73
10101110,
#BPMCHANGE 123.3
#SCROLL 0.99
1202,
#BPMCHANGE 122.66
#SCROLL 1
10102220,
#BPMCHANGE 123.46
#SCROLL 0.99
10200007,
#BPMCHANGE 123.37
0008, //32
#BPMCHANGE 122.64
#SCROLL 1
10201110,
#BPMCHANGE 122.72
10201120,
10201110,
#BPMCHANGE 123.15
#SCROLL 0.99
10201120,
0,
10201110,
#BPMCHANGE 123.46
10200007,
#BPMCHANGE 124.16
0008, //40
#BPMCHANGE 123.32
10101120,
#BPMCHANGE 122.25
#SCROLL 1
1000100010222000,
10101120,
#BPMCHANGE 123.46
#SCROLL 0.99
1000100010222000,
#BPMCHANGE 122.59
#SCROLL 1
10201120,
#BPMCHANGE 122.5
1000200010222000,
#BPMCHANGE 122.86
10201120,
#BPMCHANGE 123.83
#SCROLL 0.99
1000200022202000, //48
#BPMCHANGE 122.09
#SCROLL 1
#GOGOSTART
10201120,
#BPMCHANGE 122.55
1110200010002020,
#BPMCHANGE 122.86
500000000000000000000000000000000008000000300000,
00040400,
#BPMCHANGE 123.55
#SCROLL 0.99
10201120,
#BPMCHANGE 122.27
#SCROLL 1
1110200010102000,
#BPMCHANGE 123.64
#SCROLL 0.99
1,
#BPMCHANGE 124.44
#SCROLL 0.98
1110101010222000, //56
#GOGOEND
#BPMCHANGE 123
#SCROLL 1
3,
0,
0, //59
#END
COURSE:Normal
LEVEL:3
BALLOON:6,4,20,20
SCOREINIT:1160,8130
SCOREDIFF:473
#START
11,
#BPMCHANGE 122.55
1110,
#BPMCHANGE 123.32
#SCROLL 0.99
11,
#BPMCHANGE 122.45
#SCROLL 1
1110,
#BPMCHANGE 122.91
12,
#BPMCHANGE 123.51
#SCROLL 0.99
1110,
#BPMCHANGE 123.69
12,
#BPMCHANGE 122.23
#SCROLL 1
78, //8
#BPMCHANGE 122.5
#GOGOSTART
1110,
#BPMCHANGE 123.23
#SCROLL 0.99
10101025,
#BPMCHANGE 123.35
000000000000000000000000000000000000000000000008,
#BPMCHANGE 122.8
#SCROLL 1
0,
#BPMCHANGE 122.91
0112,
#BPMCHANGE 122.32
0,
#BPMCHANGE 123.47
#SCROLL 0.99
1111,
#BPMCHANGE 124.47
#SCROLL 0.98
1, //16
#GOGOEND
#BPMCHANGE 121.87
#SCROLL 1.01
11,
#BPMCHANGE 122.16
#SCROLL 1
1110,
#BPMCHANGE 123.39
#SCROLL 0.99
11,
#BPMCHANGE 123.44
1110,
#BPMCHANGE 123.28
12,
#BPMCHANGE 122.84
#SCROLL 1
1110,
#BPMCHANGE 123.18
#SCROLL 0.99
12,
#BPMCHANGE 123.46
78, //24
#BPMCHANGE 122.18
#SCROLL 1
11,
#BPMCHANGE 123.32
#SCROLL 0.99
11101000,
#BPMCHANGE 123
#SCROLL 1
2,
#BPMCHANGE 122.73
11101000,
#BPMCHANGE 123.3
#SCROLL 0.99
20000007,
#BPMCHANGE 122.66
#SCROLL 1
0,
#BPMCHANGE 123.46
#SCROLL 0.99
0008,
#BPMCHANGE 123.37
1110, //32
#BPMCHANGE 122.64
#SCROLL 1
10001110,
#BPMCHANGE 122.72
12,
10001110,
#BPMCHANGE 123.15
#SCROLL 0.99
12,
00000007,
0,
#BPMCHANGE 123.46
0008,
#BPMCHANGE 124.16
3, //40
#BPMCHANGE 123.32
1110,
#BPMCHANGE 122.25
#SCROLL 1
11102000,
1110,
#BPMCHANGE 123.46
#SCROLL 0.99
11102000,
#BPMCHANGE 122.59
#SCROLL 1
2220,
#BPMCHANGE 122.5
22201000,
#BPMCHANGE 122.86
2220,
#BPMCHANGE 123.83
#SCROLL 0.99
22201000, //48
#BPMCHANGE 122.09
#SCROLL 1
#GOGOSTART
3334,
#BPMCHANGE 122.55
30303046,
#BPMCHANGE 122.86
000000000000000000000000000000000000000000000008,
0,
#BPMCHANGE 123.55
#SCROLL 0.99
0334,
#BPMCHANGE 122.27
#SCROLL 1
0,
#BPMCHANGE 123.64
#SCROLL 0.99
11,
#BPMCHANGE 124.44
#SCROLL 0.98
1120, //56
#GOGOEND
#BPMCHANGE 123
#SCROLL 1
3,
0,
0, //59
#END
COURSE:Easy
LEVEL:2
BALLOON:4,4,14,14
SCOREINIT:1000,11540
SCOREDIFF:640
#START
11,
#BPMCHANGE 122.55
3,
#BPMCHANGE 123.32
#SCROLL 0.99
22,
#BPMCHANGE 122.45
#SCROLL 1
4,
#BPMCHANGE 122.91
11,
#BPMCHANGE 123.51
#SCROLL 0.99
3,
#BPMCHANGE 123.69
22,
#BPMCHANGE 122.23
#SCROLL 1
78, //8
#BPMCHANGE 122.5
#GOGOSTART
11,
#BPMCHANGE 123.23
#SCROLL 0.99
1110,
#BPMCHANGE 123.35
500000000000000000000000000000000000000000000008,
#BPMCHANGE 122.8
#SCROLL 1
0,
#BPMCHANGE 122.91
0111,
#BPMCHANGE 122.32
00000005,
#BPMCHANGE 123.47
#SCROLL 0.99
000000000000000000000000000000000000000000000008,
#BPMCHANGE 124.47
#SCROLL 0.98
0, //16
#GOGOEND
#BPMCHANGE 121.87
#SCROLL 1.01
11,
#BPMCHANGE 122.16
#SCROLL 1
3,
#BPMCHANGE 123.39
#SCROLL 0.99
22,
#BPMCHANGE 123.44
4,
#BPMCHANGE 123.28
11,
#BPMCHANGE 122.84
#SCROLL 1
3,
#BPMCHANGE 123.18
#SCROLL 0.99
22,
#BPMCHANGE 123.46
78, //24
#BPMCHANGE 122.18
#SCROLL 1
11,
#BPMCHANGE 123.32
#SCROLL 0.99
11,
#BPMCHANGE 123
#SCROLL 1
2,
#BPMCHANGE 122.73
11,
#BPMCHANGE 123.3
#SCROLL 0.99
20000007,
#BPMCHANGE 122.66
#SCROLL 1
0,
#BPMCHANGE 123.46
#SCROLL 0.99
0008,
#BPMCHANGE 123.37
11, //32
#BPMCHANGE 122.64
#SCROLL 1
1011,
#BPMCHANGE 122.72
11,
1011,
#BPMCHANGE 123.15
#SCROLL 0.99
11,
00000007,
0,
#BPMCHANGE 123.46
0008,
#BPMCHANGE 124.16
11, //40
#BPMCHANGE 123.32
11,
#BPMCHANGE 122.25
#SCROLL 1
1110,
11,
#BPMCHANGE 123.46
#SCROLL 0.99
1110,
#BPMCHANGE 122.59
#SCROLL 1
22,
#BPMCHANGE 122.5
2220,
#BPMCHANGE 122.86
22,
#BPMCHANGE 123.83
#SCROLL 0.99
2220, //48
#BPMCHANGE 122.09
#SCROLL 1
#GOGOSTART
33,
#BPMCHANGE 122.55
3330,
#BPMCHANGE 122.86
600000000000000000000000000000000000000000000008,
0,
#BPMCHANGE 123.55
#SCROLL 0.99
0333,
#BPMCHANGE 122.27
#SCROLL 1
0,
#BPMCHANGE 123.64
#SCROLL 0.99
11,
#BPMCHANGE 124.44
#SCROLL 0.98
1110, //56
#GOGOEND
#BPMCHANGE 123
#SCROLL 1
3,
0,
0, //59
#END