979 lines
13 KiB
Plaintext
979 lines
13 KiB
Plaintext
//TJADB Project
|
|
TITLE:Hatsune Miku no Shoushitsu -Gekijouban-
|
|
TITLEJA:初音ミクの消失‐劇場版‐
|
|
SUBTITLE:--cosMo@bousouP feat. Hatsune Miku
|
|
BPM:100
|
|
WAVE:Hatsune Miku no Shoushitsu -Gekijouban-.ogg
|
|
OFFSET:-3.099
|
|
DEMOSTART:85.891
|
|
|
|
COURSE:Edit
|
|
LEVEL:10
|
|
BALLOON:39
|
|
SCOREINIT:320
|
|
SCOREDIFF:80
|
|
|
|
|
|
#START
|
|
|
|
|
|
#BARLINEOFF
|
|
,
|
|
,
|
|
,
|
|
#BARLINEON
|
|
#BPMCHANGE 200
|
|
300102101200,
|
|
100211102202,
|
|
100211102202,
|
|
100102101200,
|
|
300111204000,
|
|
300111204000,
|
|
33,
|
|
112121112121,
|
|
1,
|
|
000000000000000022200020,
|
|
111212111212,
|
|
100100100100100100100100200000101010200010002000,
|
|
100010001000200100100100200100100100200010002000,
|
|
100100100100200010001000200010001000200010001000,
|
|
100100100100100010001000200000002000000020000000,
|
|
101010101010200200200000,
|
|
100010001000200010001000100100100100200010001000,
|
|
100100100100200010001000200010001000200010001000,
|
|
100200101200,
|
|
100200101200,
|
|
100000001000200000001000100100100100200010001000,
|
|
100100100100200100100100200010001000200010001000,
|
|
101211201212,
|
|
101211201212,
|
|
100010001000200010001000200100100100200010001000,
|
|
200100100100200010001000101010101010100000000000,
|
|
1111,
|
|
10101011,
|
|
10111011,
|
|
11111040,
|
|
1020111020212210,
|
|
1020121120212210,
|
|
1020111020212210,
|
|
1211201110212210,
|
|
|
|
#GOGOSTART
|
|
1110201012102022,
|
|
1110201011221120,
|
|
1110201012102022,
|
|
1110201011221120,
|
|
1210212012102120,
|
|
121212121212,
|
|
1122112211221122,
|
|
1212112212121122,
|
|
|
|
#GOGOEND
|
|
100000000000200000001000200000000100200000000000,
|
|
102020101200,
|
|
100000000000200000001000200000000100200000000000,
|
|
#MEASURE 2/4
|
|
11012020,
|
|
#MEASURE 4/4
|
|
1011202011112020,
|
|
100100100100200200200200100100200200100010002000,
|
|
21122112,
|
|
#MEASURE 2/4
|
|
212121,
|
|
#MEASURE 4/4
|
|
20120202,
|
|
03302110,
|
|
20120202,
|
|
03302110,
|
|
2121102210102121,
|
|
1022102212211222,
|
|
#MEASURE 8/4
|
|
#SCROLL 0.95
|
|
10112002
|
|
#SCROLL 0.9
|
|
12112021,
|
|
#SCROLL 0.85
|
|
1020101020000010
|
|
#SCROLL 0.8
|
|
1020101020002220,
|
|
#SCROLL 0.75
|
|
10112002
|
|
#SCROLL 0.7
|
|
12112021,
|
|
#SCROLL 0.65
|
|
1020101020000010
|
|
#SCROLL 0.6
|
|
1020101020002220,
|
|
#MEASURE 4/4
|
|
#SCROLL 1
|
|
1022102012112210,
|
|
2110201210201120,
|
|
1022102012211210,
|
|
100100100000200000100100100100200000201010200100,
|
|
1022102012112210,
|
|
2110201210201120,
|
|
101010200100200000200100201010100100200200100000,
|
|
3344,
|
|
|
|
#GOGOSTART
|
|
101020101020101020111020,
|
|
101020101020101020111020,
|
|
1122112211221122,
|
|
1122121211221212,
|
|
101010200200100100200200101010200200100100200200,
|
|
101010200200100200100200101010200200100200100200,
|
|
101010200200101010200200101010200200101010200200,
|
|
100200100200101010200200100200100200101010200200,
|
|
|
|
#GOGOEND
|
|
,
|
|
,
|
|
|
|
#GOGOSTART
|
|
#BPMCHANGE 210
|
|
111202102112,
|
|
100100100100100100100100200000101010200010001000,
|
|
200000000000200000000000100100100100100010001000,
|
|
100100100100100020002000100020002000100020002000,
|
|
#BPMCHANGE 220
|
|
100100100100100010001000200000002000000020000000,
|
|
101010201010200200201010,
|
|
200010001000200010001000100100100100200010001000,
|
|
100100100100200010001000100020002000100020002000,
|
|
#BPMCHANGE 230
|
|
111202102112,
|
|
100100100100100100100100200000101010200010001000,
|
|
200000000000200000000000100100100100100010001000,
|
|
100100100100100020002000100020002000100020002000,
|
|
#BPMCHANGE 240
|
|
100100100100100010001000200000002000000020000000,
|
|
101010201010200200201010,
|
|
200010001000200010001000100100100100200010001000,
|
|
100100100100200010001000100020002000100020002000,
|
|
111020201110202011102020,
|
|
7,
|
|
,
|
|
,
|
|
000000000000000000000000000000000000000000000008,
|
|
|
|
#GOGOEND
|
|
|
|
|
|
|
|
#END
|
|
|
|
|
|
COURSE:Oni
|
|
LEVEL:9
|
|
BALLOON:5,39
|
|
SCOREINIT:430
|
|
SCOREDIFF:103
|
|
|
|
|
|
#START
|
|
|
|
|
|
#BARLINEOFF
|
|
,
|
|
,
|
|
,
|
|
#BARLINEON
|
|
#BPMCHANGE 200
|
|
300002101200,
|
|
100100102202,
|
|
100100102202,
|
|
100002101200,
|
|
3,
|
|
3,
|
|
33,
|
|
111222111221,
|
|
1,
|
|
000000002202,
|
|
102102102102,
|
|
100100100100100000002000100010001000100000002000,
|
|
100000002000100100100100100000002000100000002000,
|
|
100100100100100000002000100010001000100000000000,
|
|
111111102020,
|
|
100010001000100010001000200000200000200000000000,
|
|
102102102102,
|
|
100100100100100000002000100010001000100000002000,
|
|
100200002200,
|
|
100200002201,
|
|
100200002200,
|
|
100100201010,
|
|
100100201010,
|
|
100111200111,
|
|
100111200111,
|
|
100100100100100010001000700000000000800000000000,
|
|
1111,
|
|
10101011,
|
|
1111,
|
|
10101021,
|
|
12112021,
|
|
12112021,
|
|
12112021,
|
|
2210102210102210,
|
|
|
|
#GOGOSTART
|
|
1110201110201110,
|
|
2011102011201020,
|
|
1110201110201110,
|
|
2011102011201020,
|
|
1110222011102220,
|
|
111222111222,
|
|
1110222011102220,
|
|
1122112211221122,
|
|
|
|
#GOGOEND
|
|
101200101200,
|
|
101010120200,
|
|
101200101200,
|
|
#MEASURE 2/4
|
|
1122,
|
|
#MEASURE 4/4
|
|
1110202011102020,
|
|
1111102011111020,
|
|
1110202011102020,
|
|
#MEASURE 2/4
|
|
500000000000000000000008,
|
|
#MEASURE 4/4
|
|
00020202,
|
|
03303300,
|
|
10020202,
|
|
03303300,
|
|
21021021,
|
|
500000000000000000000000000000000008000000000000,
|
|
#MEASURE 8/4
|
|
#SCROLL 0.5
|
|
1011200101012010,
|
|
10001010200000100010001020002220,
|
|
1011200101012010,
|
|
10001010200000100010001020002220,
|
|
#MEASURE 4/4
|
|
#SCROLL 1
|
|
11211212,
|
|
1110201110201120,
|
|
11211212,
|
|
1120111120111120,
|
|
11211212,
|
|
1110201110201120,
|
|
1111201111201120,
|
|
3344,
|
|
|
|
#GOGOSTART
|
|
111222111222,
|
|
111222111222,
|
|
1110222011102220,
|
|
1110222011102220,
|
|
1120112011201120,
|
|
1120112011201120,
|
|
1111222211112222,
|
|
1122112211221122,
|
|
|
|
#GOGOEND
|
|
,
|
|
,
|
|
|
|
#GOGOSTART
|
|
#BPMCHANGE 210
|
|
102102102102,
|
|
100100100100100000002000100000100000100010001000,
|
|
100000002000100000002000100100100100100000002000,
|
|
100100100100100000002000100010001000100000000000,
|
|
#BPMCHANGE 220
|
|
111111102020,
|
|
100010001000100010001000200000200000200000000000,
|
|
102102102102,
|
|
100100100100100000002000100010001000100000000000,
|
|
#BPMCHANGE 230
|
|
102102102102,
|
|
100100100100100000002000100000100000100010001000,
|
|
100000002000100000002000100100100100100000002000,
|
|
100100100100100000002000100010001000100000000000,
|
|
#BPMCHANGE 240
|
|
111111102020,
|
|
100010001000100010001000200000200000200000000000,
|
|
102102102102,
|
|
100100100100100000002000100010001000100000000000,
|
|
222111222111,
|
|
7,
|
|
,
|
|
,
|
|
000000000000000000000000000000000000000000000008,
|
|
|
|
#GOGOEND
|
|
|
|
|
|
#END
|
|
|
|
|
|
COURSE:Hard
|
|
LEVEL:8
|
|
BALLOON:7,7,7,7,7,7,30,30,30
|
|
SCOREINIT:410
|
|
SCOREDIFF:110
|
|
|
|
|
|
#START
|
|
|
|
|
|
#BARLINEOFF
|
|
,
|
|
,
|
|
,
|
|
#BARLINEON
|
|
#BPMCHANGE 200
|
|
300001100200,
|
|
100000002202,
|
|
200000002202,
|
|
200001100200,
|
|
3,
|
|
3,
|
|
33,
|
|
600000000000000000000000000000000000000000000008,
|
|
,
|
|
,
|
|
#SECTION
|
|
#BRANCHSTART p,80,95
|
|
#N
|
|
101101100100,
|
|
101101100100,
|
|
111100100100,
|
|
100100111100,
|
|
100100101010,
|
|
1122,
|
|
202200202200,
|
|
100100111100,
|
|
12,
|
|
12,
|
|
12,
|
|
100100201010,
|
|
100100201010,
|
|
1121,
|
|
1121,
|
|
100111100000,
|
|
11,
|
|
1011,
|
|
11,
|
|
1011,
|
|
10112010,
|
|
10112010,
|
|
10112010,
|
|
7008,//N34
|
|
#E
|
|
101101100100,
|
|
101101100100,
|
|
100010001000100000000000100000100000100000000000,
|
|
100000100000100000000000100010001000100000000000,
|
|
100100101010,
|
|
10101110,
|
|
202200202200,
|
|
100000100000100000000000100010001000100000000000,
|
|
12,
|
|
12,
|
|
12,
|
|
100100201010,
|
|
100100201010,
|
|
100100200111,
|
|
100100200111,
|
|
100111100000,
|
|
11,
|
|
1011,
|
|
11,
|
|
1011,
|
|
10112010,
|
|
10112010,
|
|
10112010,
|
|
7008,//E34
|
|
#M
|
|
201101100100,
|
|
1011101110001000,
|
|
100010001000100000000000100100100100100000000000,
|
|
100100100100100000000000100010001000100000000000,
|
|
100101101010,
|
|
100000100010100100100000,
|
|
202200202200,
|
|
100100100100100000000000100010001000100000000000,
|
|
12,
|
|
100000200001,
|
|
12,
|
|
100100201010,
|
|
100100201010,
|
|
100100200111,
|
|
100100200111,
|
|
100111100000,
|
|
11,
|
|
1011,
|
|
11,
|
|
1011,
|
|
10112010,
|
|
10112010,
|
|
10112010,
|
|
7008,//M34
|
|
|
|
#SECTION
|
|
#BRANCHSTART p,80,95
|
|
#N
|
|
#GOGOSTART
|
|
11201201,
|
|
01121120,
|
|
11201201,
|
|
01121120,
|
|
11111111,
|
|
111111111111,
|
|
11111111,
|
|
11111111,//N42
|
|
|
|
#GOGOEND
|
|
1212,
|
|
101010100200,
|
|
1212,
|
|
#MEASURE 2/4
|
|
1022,
|
|
#MEASURE 4/4
|
|
10221022,
|
|
1212,
|
|
10112211,
|
|
#MEASURE 2/4
|
|
500000000000000000000008,
|
|
#MEASURE 4/4
|
|
,
|
|
03303300,
|
|
3,
|
|
03303300,
|
|
33,
|
|
7008,
|
|
#SCROLL 0.5
|
|
#MEASURE 8/4
|
|
1010200101012000,
|
|
1010200101012000,
|
|
1010200101012000,
|
|
1010200101012000,
|
|
#SCROLL 1
|
|
#MEASURE 4/4
|
|
11201120,
|
|
11221120,
|
|
11201120,
|
|
10210120,
|
|
11201120,
|
|
11221120,
|
|
11201120,
|
|
3344,//N68
|
|
#E
|
|
#GOGOSTART
|
|
11211201,
|
|
01121120,
|
|
11211201,
|
|
01121120,
|
|
11111111,
|
|
111111111111,
|
|
22221111,
|
|
22221111,//E42
|
|
|
|
#GOGOEND
|
|
1212,
|
|
101010100200,
|
|
1212,
|
|
#MEASURE 2/4
|
|
1022,
|
|
#MEASURE 4/4
|
|
10221022,
|
|
1212,
|
|
10112211,
|
|
#MEASURE 2/4
|
|
500000000000000000000008,
|
|
#MEASURE 4/4
|
|
,
|
|
03303300,
|
|
3,
|
|
03303300,
|
|
33,
|
|
7008,
|
|
#SCROLL 0.5
|
|
#MEASURE 8/4
|
|
1010200101012000,
|
|
1010200101012000,
|
|
1010200101012000,
|
|
1010200101012000,
|
|
#SCROLL 1
|
|
#MEASURE 4/4
|
|
11201120,
|
|
11221120,
|
|
11201120,
|
|
10210120,
|
|
11201120,
|
|
11221120,
|
|
11201120,
|
|
3344,//E68
|
|
#M
|
|
#GOGOSTART
|
|
11211211,
|
|
21121212,
|
|
11211211,
|
|
21121212,
|
|
11111111,
|
|
111111111111,
|
|
22221111,
|
|
2220222011101110,//42
|
|
|
|
#GOGOEND
|
|
1212,
|
|
101010100200,
|
|
1212,
|
|
#MEASURE 2/4
|
|
1022,
|
|
#MEASURE 4/4
|
|
10221022,
|
|
1212,
|
|
10112211,
|
|
#MEASURE 2/4
|
|
500000000000000000000008,
|
|
#MEASURE 4/4
|
|
,
|
|
03303300,
|
|
3,
|
|
03303300,
|
|
33,
|
|
7008,
|
|
#SCROLL 0.5
|
|
#MEASURE 8/4
|
|
1010200101012000,
|
|
1010200101012000,
|
|
1010200101012000,
|
|
1010200101012000,
|
|
#SCROLL 1
|
|
#MEASURE 4/4
|
|
11201120,
|
|
11221120,
|
|
11201120,
|
|
11210120,
|
|
11201120,
|
|
11221120,
|
|
11201120,
|
|
3344,//M68
|
|
|
|
#SECTION
|
|
#BRANCHSTART p,80,95
|
|
#N
|
|
#GOGOSTART
|
|
111111111111,
|
|
111111111111,
|
|
11111111,
|
|
11111111,
|
|
11111111,
|
|
11111111,
|
|
11111111,
|
|
11111111,//N76
|
|
|
|
#GOGOEND
|
|
,
|
|
,//N78
|
|
#E
|
|
#GOGOSTART
|
|
111111111111,
|
|
111111111111,
|
|
11111111,
|
|
11111111,
|
|
22221111,
|
|
22221111,
|
|
22112211,
|
|
22112211,//E76
|
|
|
|
#GOGOEND
|
|
,
|
|
,//E78
|
|
#M
|
|
#GOGOSTART
|
|
111111111111,
|
|
111111111111,
|
|
11111111,
|
|
11111111,
|
|
22221111,
|
|
22221111,
|
|
22112211,
|
|
2220111022201110,//M76
|
|
|
|
#GOGOEND
|
|
,
|
|
,//M78
|
|
|
|
#SECTION
|
|
#BRANCHSTART p,80,95
|
|
#N
|
|
#GOGOSTART
|
|
#BPMCHANGE 210
|
|
101101100100,
|
|
101101100100,
|
|
111100100100,
|
|
100100111100,
|
|
#BPMCHANGE 220
|
|
100100101010,
|
|
1122,
|
|
202200202200,
|
|
100100111100,
|
|
#BPMCHANGE 230
|
|
101101100100,
|
|
101101100100,
|
|
111100100100,
|
|
100100111100,
|
|
#BPMCHANGE 240
|
|
100100101010,
|
|
1122,
|
|
202200202200,
|
|
100100111100,
|
|
111100111100,
|
|
7,
|
|
,
|
|
,
|
|
,//N99
|
|
#E
|
|
#GOGOSTART
|
|
#BPMCHANGE 210
|
|
101101100100,
|
|
101101100100,
|
|
101010100000100100100000,
|
|
100100100000101010100000,
|
|
#BPMCHANGE 220
|
|
100100101010,
|
|
10101110,
|
|
202200202200,
|
|
100100100000101010100000,
|
|
#BPMCHANGE 230
|
|
101101100100,
|
|
101101100100,
|
|
101010100000100100100000,
|
|
100100100000101010100000,
|
|
#BPMCHANGE 240
|
|
100100101010,
|
|
10101110,
|
|
202200202200,
|
|
100100100000101010100000,
|
|
111100222200,
|
|
7,
|
|
,
|
|
,
|
|
,//E99
|
|
#M
|
|
#GOGOSTART
|
|
#BPMCHANGE 210
|
|
101101100100,
|
|
1011101110001000,
|
|
100010001000100000000000100100100100100000000000,
|
|
100100100100100000000000100010001000100000000000,
|
|
#BPMCHANGE 220
|
|
100101101010,
|
|
100000100010100100100000,
|
|
202200202200,
|
|
100100100100100000000000100010001000100000000000,
|
|
#BPMCHANGE 230
|
|
101101100100,
|
|
1011101110001000,
|
|
100010001000100000000000100100100100100000000000,
|
|
100100100100100000000000100010001000100000000000,
|
|
#BPMCHANGE 240
|
|
100101101010,
|
|
100000100010100100100000,
|
|
202200202200,
|
|
100100100100100000000000100010001000100000000000,
|
|
111111222222,
|
|
7,
|
|
,
|
|
,
|
|
,//M99
|
|
|
|
#BRANCHEND
|
|
#GOGOEND
|
|
8,
|
|
|
|
|
|
#END
|
|
|
|
|
|
COURSE:Normal
|
|
LEVEL:7
|
|
BALLOON:5,5,24
|
|
SCOREINIT:580
|
|
SCOREDIFF:140
|
|
|
|
#START
|
|
#BARLINEOFF
|
|
,
|
|
,
|
|
,
|
|
#BARLINEON
|
|
#BPMCHANGE 200
|
|
3,
|
|
,
|
|
,
|
|
,
|
|
3,
|
|
,
|
|
33,
|
|
600000000000000000000000000000000000000000000008,
|
|
,
|
|
,
|
|
1110,
|
|
1110,
|
|
1122,
|
|
1110,
|
|
1110,
|
|
1110,
|
|
1122,
|
|
1110,
|
|
12,
|
|
1022,
|
|
12,
|
|
100000000000100000000000500000000008000000000000,
|
|
100000000000100000000000500000000008000000000000,
|
|
100000000000100000000000500000000008000000000000,
|
|
100000000000100000000000500000000008000000000000,
|
|
1110,
|
|
11,
|
|
1011,
|
|
11,
|
|
1011,
|
|
10002011,
|
|
10002011,
|
|
10002011,
|
|
7008,//34
|
|
|
|
#GOGOSTART
|
|
10101110,
|
|
10101110,
|
|
10101110,
|
|
10101110,
|
|
11101110,
|
|
11101110,
|
|
11111110,
|
|
11111110,//42
|
|
|
|
#GOGOEND
|
|
1202,
|
|
1101,
|
|
1202,
|
|
#MEASURE 2/4
|
|
1,
|
|
#MEASURE 4/4
|
|
11102020,
|
|
11102020,
|
|
11101110,
|
|
#MEASURE 2/4
|
|
500000000000000000000008,
|
|
#MEASURE 4/4
|
|
,
|
|
03303300,
|
|
3,
|
|
03303300,
|
|
33,
|
|
7008,
|
|
#SCROLL 0.5
|
|
#MEASURE 8/4
|
|
11201020,
|
|
11202020,
|
|
11201020,
|
|
11202020,
|
|
#SCROLL 1
|
|
#MEASURE 4/4
|
|
10201120,
|
|
10201120,
|
|
11201120,
|
|
10110000,
|
|
10201120,
|
|
10201120,
|
|
11201120,
|
|
3333,//68
|
|
|
|
#GOGOSTART
|
|
1111,
|
|
1111,
|
|
11101110,
|
|
11101110,
|
|
11111110,
|
|
11111110,
|
|
11111111,
|
|
11111111,//76
|
|
|
|
#GOGOEND
|
|
,
|
|
,//78
|
|
|
|
#GOGOSTART
|
|
#BPMCHANGE 210
|
|
1110,
|
|
1110,
|
|
1122,
|
|
11101000,
|
|
#BPMCHANGE 220
|
|
1110,
|
|
1110,
|
|
1122,
|
|
11101000,
|
|
#BPMCHANGE 230
|
|
1110,
|
|
1110,
|
|
1122,
|
|
11101110,
|
|
#BPMCHANGE 240
|
|
1110,
|
|
1110,
|
|
1122,
|
|
11101110,
|
|
1122,
|
|
7,
|
|
,
|
|
,
|
|
,//99
|
|
|
|
#GOGOEND
|
|
8,
|
|
,
|
|
,
|
|
,
|
|
,
|
|
,
|
|
,
|
|
#END
|
|
|
|
COURSE:Easy
|
|
LEVEL:5
|
|
BALLOON:4,4,20
|
|
SCOREINIT:380
|
|
SCOREDIFF:100
|
|
|
|
#START
|
|
#BARLINEOFF
|
|
,
|
|
,
|
|
,
|
|
#BARLINEON
|
|
#BPMCHANGE 200
|
|
3,
|
|
,
|
|
,
|
|
,
|
|
3,
|
|
,
|
|
33,
|
|
600000000000000000000000000000000000000000000008,
|
|
,
|
|
,
|
|
1110,
|
|
1110,
|
|
22,
|
|
1110,
|
|
1110,
|
|
1110,
|
|
22,
|
|
1110,
|
|
1,
|
|
12,
|
|
100000000000100000000000500000000008000000000000,
|
|
100000000000100000000000500000000008000000000000,
|
|
100000000000100000000000500000000008000000000000,
|
|
100000000000100000000000500000000008000000000000,
|
|
1110,
|
|
11,
|
|
1011,
|
|
11,
|
|
1011,
|
|
12,
|
|
12,
|
|
1120,
|
|
7008,//34
|
|
|
|
#GOGOSTART
|
|
10101011,
|
|
1110,
|
|
10101011,
|
|
1110,
|
|
1111,
|
|
1111,
|
|
11101010,
|
|
11101010,//42
|
|
|
|
#GOGOEND
|
|
1202,
|
|
1101,
|
|
1202,
|
|
#MEASURE 2/4
|
|
1,
|
|
#MEASURE 4/4
|
|
10101110,
|
|
1122,
|
|
10101110,
|
|
#MEASURE 2/4
|
|
500000000000000000000008,
|
|
#MEASURE 4/4
|
|
,
|
|
,
|
|
3,
|
|
3,
|
|
33,
|
|
7008,
|
|
#SCROLL 0.5
|
|
#MEASURE 8/4
|
|
11102020,
|
|
11101000,
|
|
11102020,
|
|
11101000,
|
|
#SCROLL 1
|
|
#MEASURE 4/4
|
|
1110,
|
|
11101000,
|
|
11,
|
|
1,
|
|
1110,
|
|
11101000,
|
|
11,
|
|
3333,//68
|
|
|
|
#GOGOSTART
|
|
1111,
|
|
1111,
|
|
10101110,
|
|
10101110,
|
|
11101110,
|
|
11101110,
|
|
11111110,
|
|
11111110,//76
|
|
|
|
#GOGOEND
|
|
,
|
|
,//78
|
|
|
|
#GOGOSTART
|
|
#BPMCHANGE 210
|
|
1110,
|
|
1110,
|
|
22,
|
|
10111000,
|
|
#BPMCHANGE 220
|
|
1110,
|
|
1110,
|
|
22,
|
|
10111000,
|
|
#BPMCHANGE 230
|
|
1110,
|
|
1110,
|
|
22,
|
|
10111000,
|
|
#BPMCHANGE 240
|
|
1110,
|
|
1110,
|
|
22,
|
|
10111000,
|
|
1122,
|
|
7,
|
|
,
|
|
,
|
|
,
|
|
8,//100
|
|
|
|
#GOGOEND
|
|
,
|
|
,
|
|
,
|
|
,
|
|
,
|
|
,
|
|
#END |