Files
TJA-by-song-no/tja/336.tja
2026-03-04 23:59:27 +09:00

922 lines
9.7 KiB
Plaintext

//TJADB Project
TITLE:Infinite Rebellion
TITLEJA:Infinite Rebellion
SUBTITLE:--Daisuke Kurosawa -Yuugen no Ran Rendition-
SUBTITLEJA:黒沢ダイスケ 原曲「幽玄ノ乱/世阿弥(Tatsh)」
BPM:100
WAVE:Infinite Rebellion.ogg
OFFSET:-2.554
DEMOSTART:13.741
//shinuchi: 1860/1380/1050/750
COURSE:Oni
LEVEL:10
BALLOON:
SCOREINIT:270,770
SCOREDIFF:63
#START
#BARLINEOFF
0,
0,
0,
#BARLINEON
0,
#BPMCHANGE 301.63
#SCROLL 0.96
0,
#BARLINEOFF
0, //6
#BARLINEON
#BPMCHANGE 300
#SCROLL 1
21212112,
2010201100112010,
2010201100112010,
1212101021212010,
21212112,
2010201100112010,
1010201120102010,
1212101021212010, //14
1010201011112010,
1010201022112010,
1010201011112010,
1020102012021122,
1010201011112010,
1010201022112010,
1010201011112010,
1020102012021122, //22
1010201020102011,
2222111122221111,
2211221121111111,
2000202000202222,
1010101022202020,
1010101022112211,
1010101022202020,
1010101011221122, //30
1010101022202020,
1010101022112211,
1010101022202020,
1010101011221122,
1022101022102010,
2022101022221111,
2222111122112212,
1000101120101110, //38
1000101120101110,
1000101120101110,
1011201010112010,
1000101120101210,
1000101120101210,
1000101120101210,
1011201011201010,
1021201021201010,
1110201011102010,
1110201110102010,
1111211111112111,
2000202000202222, //50
#GOGOSTART
11221122,
11221222,
11221122,
1212121210202020,
11221122,
11221222,
12212112,
1002221002221000, //58
11221122,
11221222,
11221122,
1212121210202020,
11221122,
11221222,
12212112,
2001112001112000, //66
#GOGOEND
2211112211112211,
2211112211112211,
2222112222112211,
200200200200100100200200200200100100200020001000,
2222112221112211,
2121212121212121, //72
#GOGOSTART
2010102020012020,
2010102001112010,
11212121,
2222101022221020,
2010101020012020,
2010102001112010,
2010221020212020,
1022102011221122, //80
1010202020012020,
2010102001112010,
11212121,
2222101022221020,
2020102010201212,
1020121212012010,
2010201120201120,
2210202210201010, //88
#GOGOEND
10210121,
11210120,
100000202020100100200100,
10211020,
1111201000102011,
1111201000101111,
1111201000102010,
2011201022112010, //96
#GOGOSTART
2022202022202040,
0010111010101110,
2022202022202040,
000000200000200020002000100000200200100000200000,
2022202022202040,
0010111010101110,
2022202022202040,
0020102211121212, //104
#GOGOEND
11221122,
11221221,
11221122,
1010202021111111,
11221122,
11221212,
11212112,
1022101022101111, //112
100000200200202020200200,
2220202220203000,
22302222,
2220202220203000,
200200200200202020200200,
2220202220203000,
000200300000300000001010,
20040041, //120
#GOGOSTART
1000211110201020,
1020102010201021,
1110201020102010,
2010201022112222,
11401404,
0040004012121212,
11401404,
0040004022222222, //128
11401404,
0040004012121212,
11401404,
0000002121212120,
#BARLINEOFF
#MEASURE 1/64
#BPMCHANGE 5
#SCROLL 60
0, //133
#GOGOEND
#BARLINEON
#MEASURE 4/4
#BPMCHANGE 160
#SCROLL 1
101010100022101010100000,
101010100022101010102210,
101010100022101010100000,
101010100022121020201010,
221010221122
#GOGOSTART
102010212010,
212010212012121020102010, //139
#GOGOEND
#BARLINEOFF
#MEASURE 1/64
#BPMCHANGE 5
#SCROLL 32
0,
#BARLINEON
#MEASURE 4/4
#BPMCHANGE 96
#SCROLL 1
5,
#BARLINEOFF
#MEASURE 13/16
000000000000000000000000000000000000080,
#MEASURE 4/4
0, //143
#END
COURSE:Hard
LEVEL:8
BALLOON:
SCOREINIT:280,1090
SCOREDIFF:68
#START
#BARLINEOFF
0,
0,
0,
#BARLINEON
0,
#BPMCHANGE 301.63
#SCROLL 0.96
0,
#BARLINEOFF
0, //6
#BARLINEON
#BPMCHANGE 300
#SCROLL 1
21212021,
2010201100002010,
2010201100002010,
1011100020222000,
21212021,
2010201100002010,
2010201100002010,
1011100020222000, //14
10201121,
11210120,
10201120,
12121220,
10201121,
11210120,
10201120,
12121220, //22
21112111,
21112111,
2011101020111010,
2000202000202220,
11112222,
1010101022202000,
11112222,
1010101011102000, //30
11112222,
1010101022202000,
11112222,
1010101011102000,
2010111020201010,
2010111020201010,
2010111020202000,
1000101020101110, //38
1000101020101110,
1000101020101110,
11211120,
1000101020101110,
1000101020101110,
1000101020101110,
11211211,
1022201020202020,
10201120,
11210121,
1110201011102010,
20220240, //50
#GOGOSTART
11221020,
11221120,
11211020,
12120210,
11221020,
11201120,
11211020,
3000111000111000, //58
11221020,
11221120,
11211020,
12120210,
11221020,
11221120,
12101210,
4000222000222000, //66
#GOGOEND
21121121,
21121121,
22122121,
200200100200200100202020,
2220102020102010,
21212121, //72
#GOGOSTART
20122022,
20120120,
01202121,
2000101022202020,
20112022,
20120120,
0010200020222020,
12122212, //80
10222021,
20120120,
01202121,
2000101020101110,
21112111,
22112211,
2250,
000000000000000000000000000000000008000000000000, //88
#GOGOEND
10210120,
11210120,
100222200200,
10212020,
11210121,
1010201000101110,
11210121,
21211120, //96
#GOGOSTART
2020200022200040,
0010111010001000,
2020200022200040,
000100101010100000100000,
2020200022200040,
0010111010001000,
2020200022200040,
0020202011101010, //104
#GOGOEND
2000200011102000,
2000200011102000,
2000100011102000,
11201222,
2000200011102000,
2000200011102000,
2000100011102010,
1022201020202020, //112
100000200200202020200000,
2220002220003000,
20302220,
2220002220003000,
200000200200202020200000,
2220002220003000,
000200300000300000001010,
10030030, //120
#GOGOSTART
20221212,
12121212,
10212121,
2010201022202000,
11401404,
0040004011102020,
11401404,
0040004022202020, //128
11401404,
0040004011102020,
11401404,
0000002220202020,
#BARLINEOFF
#MEASURE 1/64
#BPMCHANGE 5
#SCROLL 60
0, //133
#GOGOEND
#BARLINEON
#MEASURE 4/4
#BPMCHANGE 160
#SCROLL 1
111102111100,
101010100022200010200010,
111102111100,
101010100022200000000000,
222020111000
#GOGOSTART
102010201020,
112211212121, //139
#GOGOEND
#BARLINEOFF
#MEASURE 1/64
#BPMCHANGE 5
#SCROLL 32
0,
#BARLINEON
#MEASURE 4/4
#BPMCHANGE 96
#SCROLL 1
5,
#BARLINEOFF
#MEASURE 13/16
000000000000000000000000000000000000080,
#MEASURE 4/4
0, //143
#END
COURSE:Normal
LEVEL:7
BALLOON:
SCOREINIT:300,1430
SCOREDIFF:70
#START
#BARLINEOFF
0,
0,
0,
#BARLINEON
0,
#BPMCHANGE 301.63
#SCROLL 0.96
0,
#BARLINEOFF
0, //6
#BARLINEON
#BPMCHANGE 300
#SCROLL 1
20111020,
20111020,
20111020,
11102220,
20111020,
20111020,
20111020,
11102220, //14
1212,
10110110,
1212,
12102020,
1212,
10110110,
1212,
12102020, //22
1111,
11101110,
11111110,
20220220,
10102222,
10102220,
10102222,
10102120, //30
10102222,
10102220,
10102222,
10102120,
22101110,
20101110,
20112220,
10112011, //38
10112011,
10112011,
11201120,
10112011,
10112011,
10112011,
10201201,
10222222,
10201120,
10210120,
11201120,
20220240, //50
#GOGOSTART
10111020,
10221020,
10111020,
10110210,
10111020,
10221020,
11111020,
30230230, //58
10111020,
10221020,
10111020,
10110210,
10111020,
10221020,
10101210,
40140140, //66
#GOGOEND
20111120,
20111120,
20111220,
20111220,
22111220,
22222222, //72
#GOGOSTART
20112022,
20220120,
00202120,
20102211,
20112022,
20220120,
00202120,
20102222, //80
10112022,
20220120,
00202120,
20102211,
20112011,
20212021,
2250,
000000000000000000000000000000000008000000000000, //88
#GOGOEND
10110120,
10110120,
10110120,
10210120,
10110120,
10110120,
10110120,
22221010, //96
#GOGOSTART
22202204,
01111010,
22202204,
01121010,
22202204,
01111010,
22202204,
02221110, //104
#GOGOEND
20201120,
20202120,
20201120,
20112021,
20201120,
20202120,
20201120,
10222222, //112
100200222200,
20020030,
20302220,
20020030,
200200222200,
20020030,
000200300000300000001010,
10030030, //120
#GOGOSTART
20101210,
12101210,
10212021,
20212000,
11401202,
02023000,
11401202,
02024000, //128
11401202,
02023000,
11401204,
00022111,
#BARLINEOFF
#MEASURE 1/64
#BPMCHANGE 5
#SCROLL 60
0, //133
#GOGOEND
#BARLINEON
#MEASURE 4/4
#BPMCHANGE 160
#SCROLL 1
111100111100,
111100202200,
111100111100,
111102200000,
222111
#GOGOSTART
500000,
000000000000000000080000200010002000100020001000, //139
#GOGOEND
#BARLINEOFF
#MEASURE 1/64
#BPMCHANGE 5
#SCROLL 32
0,
#BARLINEON
#MEASURE 4/4
#BPMCHANGE 96
#SCROLL 1
5,
#BARLINEOFF
#MEASURE 13/16
000000000000000000000000000000000000080,
#MEASURE 4/4
0,
#END
COURSE:Easy
LEVEL:5
BALLOON:
SCOREINIT:220,2010
SCOREDIFF:50
#START
#BARLINEOFF
0,
0,
0,
#BARLINEON
0,
#BPMCHANGE 301.63
#SCROLL 0.96
0,
#BARLINEOFF
0, //6
#BARLINEON
#BPMCHANGE 300
#SCROLL 1
2220,
2202,
2202,
22,
2220,
2202,
2202,
22, //14
1012,
1110,
1012,
1022,
1012,
1110,
1012,
1022, //22
1110,
1110,
1111,
20220220,
10002220,
1022,
10002220,
1022, //30
10002220,
1022,
10002220,
12,
2222,
1111,
22201110,
1021, //38
1021,
1021,
1202,
1021,
1021,
1021,
10200200,
10222020,
11101020,
11101020,
11102220,
20220240, //50
#GOGOSTART
1112,
1212,
1112,
10110020,
1112,
1212,
1112,
30030030, //58
1112,
1212,
1112,
10110020,
1112,
1212,
1112,
40040040, //66
#GOGOEND
20011010,
20011010,
20011020,
20011020,
22011020,
4, //72
#GOGOSTART
30222011,
10110220,
0112,
20001110,
22202011,
10110220,
00201110,
22201110, //80
10222011,
10010020,
0112,
2,
10111011,
10222011,
1150,
000000000000000000000000000000000008000000000000, //88
#GOGOEND
10110020,
10110020,
10111020,
10222020,
10110020,
10110020,
10111020,
22201010, //96
#GOGOSTART
20202204,
01101010,
20202204,
01102010,
20202204,
01101010,
20202204,
02201010, //104
#GOGOEND
2212,
2211,
2212,
20111000,
2212,
2211,
2212,
20111010, //112
3220,
20020030,
0320,
20020030,
0220,
20020030,
0330,
30030030, //120
#GOGOSTART
20101110,
11101020,
10111011,
10222000,
11302202,
02013000,
11302202,
02024000, //128
11302202,
02013000,
11302204,
00011111,
#BARLINEOFF
#MEASURE 1/64
#BPMCHANGE 5
#SCROLL 60
0, //133
#GOGOEND
#BARLINEON
#MEASURE 4/4
#BPMCHANGE 160
#SCROLL 1
33,
3022,
33,
34,
22
#GOGOSTART
50,
000000000000000000000000000000000000000000080000, //139
#GOGOEND
#BARLINEOFF
#MEASURE 1/64
#BPMCHANGE 5
#SCROLL 32
0,
#BARLINEON
#MEASURE 4/4
#BPMCHANGE 96
#SCROLL 1
5,
#BARLINEOFF
#MEASURE 13/16
000000000000000000000000000000000000080,
#MEASURE 4/4
0,
#END