Files
TJA-by-song-no/tja/348.tja
2026-03-04 23:59:27 +09:00

525 lines
5.1 KiB
Plaintext

//TJADB Project
TITLE:Lightning Passion
TITLEJA:らいとにんぐ ぱっしょん
SUBTITLE:--Ayako Saso (Sampling Masters)
BPM:166
WAVE:Lightning Passion.ogg
OFFSET:-1.701
DEMOSTART:7.480
COURSE:Edit
LEVEL:9
BALLOON:82
SCOREINIT:430
SCOREDIFF:105
#START
11211122,
22122212,
33043304,
300000000000300000300000300000500000000008000000,
1020110210201202,
1101201011012010,
1020110210201202,
1010202010222020,
1020120210221021,
1020120210221021,
1020120210122120,
1022102210221020,
1020110210201202,
1101201011012010,
1020110210201202,
1010202010222020,
1020120210221021,
1020120210221021,
1020112020221020,
300000300000000000400000300000500000000008000000,
1010202011102020,
1020201011202010,
2020101022101020,
2010102022101020,
1010202011102020,
1020201011202010,
2020101012202010,
2010102211221122,
1010202011102020,
1020201011202010,
2020101022101020,
2010102022101020,
1010202011102020,
1020201011202010,
12121212,
1120112011201111,
#GOGOSTART
1020120211201201,
1120120210003000,
1020120211201201,
1120120210004000,
1020120211201201,
1120120210004000,
1020120210201202,
1020120211111111,
1020120211201202,
1120120210003000,
1020120211201202,
1120120210004000,
1020120211201202,
1120120210004000,
1020120212201202,
1020120212201202,
7,
,
,
0008,
#GOGOEND
3,
,
33043304,
30333000,
1010222010102220,
1110222011102220,
1022102210221022,
1022102210202020,
1020110210201202,
1101201011012010,
1020110210201202,
1010202010222020,
1020120210221021,
1020120210221021,
1020120210122120,
1022102210221020,
1020110210201202,
1101201011012010,
1020110210201202,
1010202010222020,
1020120210221021,
1020120210221021,
1020112020221020,
1020120210102010,
1020120210221020,
1020120210221020,
1020112020221020,
1110201120111011,
2011201110304030,
4,
#END
COURSE:Oni
LEVEL:7
SCOREINIT:460
SCOREDIFF:120
#START
3,
,
33043304,
3000404030111110,
10121122,
12121212,
10121122,
12121010,
1000102110102020,
12121212,
10121010,
1020202220202020,
10121122,
12121212,
10121122,
12121010,
1212,
10221020,
10102211,
4040003040111010,
11210121,
11210120,
11210121,
11210120,
11210121,
11210120,
11210121,
2020101022112211,
11210121,
11210120,
11210121,
11210120,
11210121,
11210120,
11111111,
1110111011101110,
#GOGOSTART
1020102212021020,
2143,
1020102212021020,
2143,
1020102212021020,
2143,
1020102210221020,
1020122022112211,
1020102212021020,
1243,
1020102212021020,
1243,
1020102212021020,
1243,
1020102210220222,
1020102210220222,
12102102,
02102100,
02102102,
02102100,
#GOGOEND
3,
,
33043304,
3000404030111110,
11221122,
11221122,
1022102210221022,
11111111,
10121122,
12121212,
10121122,
12121010,
1000102110102020,
12121212,
10121010,
1020202220202020,
10121122,
12121212,
10121122,
12121010,
1212,
10221020,
10102212,
1202,
1212,
10221020,
10202211,
2020003040112020,
0030401120200030,
3,
#END
COURSE:Hard
LEVEL:6
BALLOON:25,54
SCOREINIT:530
SCOREDIFF:120
#START
3,
,
33043304,
30333000,
10011122,
12121210,
10011122,
12121220,
1000001110102000,
1000001110102000,
1000001110102010,
1,
10011122,
12121210,
10011122,
12121220,//16
10201120,
10201120,
10201121,
33033000,
10210121,
10210120,
10210121,
10210120,
10210121,
10210120,
10210120,
1000201022202000,
10210121,
10210120,//30
10210121,
10210120,
10210121,
10210120,
7,
0008,
#GOGOSTART
1000201011102010,
1144,
1000201011102010,
2144,//40
1000201011102010,
1144,
1011101000202011,
1011101000100000,
1000201011102010,
1144,
1000201011102010,
2144,
1000201011102010,
1144,
1011101000202011,
1011101000202000,
7,
,
,
0008,//56
#GOGOEND
3,
0,
33043304,
30333000,
0202,
0202,
1111,
3,
10011122,
12121210,
10011122,
12121220,
1000001110102000,
1000001110102000,//70
1000001110102010,
1,
10011122,
12121210,
10011122,
12121220,
10201120,
10211020,
10201121,
1,
10201120,
10211020,
10201121,
11021011,//84
02103304,
3,
,
,
,
,
,
#END
COURSE:Normal
LEVEL:5
BALLOON:15,32
#START
3,
,
33003300,
3330,//4
10011010,
1210,
10011010,
1210,
10011020,
10011020,
10011020,
1,
10011010,
1210,
10011010,
1210,//16
1212,
10111020,
1212,
3,
10110110,
10110000,
10110110,
10110000,
10110110,
10110000,
10110110,
1,
10110110,
10220000,//30
10110110,
10220000,
10110110,
10220000,
7,
0008,
#GOGOSTART
10110110,
1200,
10110110,
2100,//40
10110110,
1200,
11110110,
11101000,
10220110,
1200,
10220110,
2100,
10220110,
1200,
11110220,
11110220,
7,
,
,
0008,//56
#GOGOEND
3,
0,
33003300,
3330,
0202,
0202,
1111,
3,
10011020,
1210,
10011020,
1210,
10011020,
10011020,//70
10011020,
1,
10011020,
1210,
10011020,
1210,
1212,
10111000,
10101110,
1,
1212,
10111000,
10101110,
30033030,//84
03303003,
3,
,
,
,
,
,
#END
COURSE:Easy
LEVEL:4
SCOREINIT:620
SCOREDIFF:170
BALLOON:15,32,15
#START
3,
,
33,
3330,//4
1011,
1110,
1011,
1120,
1011,
1011,
1011,
1,
1011,
1110,
1011,
1120,//16
1011,
1011,
1011,
3,
10010000,
10110000,
10010000,
10110000,
10010000,
10110000,
10010000,
1,
10020000,
10220000,//30
10020000,
10220000,
10020000,
10220000,
7,
0008,
#GOGOSTART
1101,
1100,
1101,
1200,//40
1101,
1100,
1101,
1110,
1101,
1100,
1101,
1200,
1101,
1100,
1101,
1101,
7,
,
,
0008,//56
#GOGOEND
3,
0,
33,
3330,
0202,
0202,
0202,
3,
1011,
1110,
1011,
1120,
1011,
1011,//70
1011,
1,
1011,
1110,
1011,
1120,
1011,
1011,
1011,
2,
1011,
1011,
1011,
7,//84
0008,
3,
,
,
,
,
,
#END