Files
TJA-by-song-no/tja/363.tja
2026-03-04 23:59:27 +09:00

425 lines
5.5 KiB
Plaintext

//TJADB Project
TITLE:Kamikaze Remix
TITLEJA:Kamikaze Remix
SUBTITLE:--Ayako Saso (Sampling Masters)/RIDGE RACER 2
SUBTITLEJA:「RIDGE RACERS 2」より
BPM:158
WAVE:Kamikaze Remix.ogg
OFFSET:-3.246
DEMOSTART:12.352
COURSE:Oni
LEVEL:10
SCOREINIT:500
SCOREDIFF:125
#START
,
,
1000100010010010,
0010010010010010,
1000100010010010,
,
1022102210012210,
0012210010212210,
0012210010212210,
0012210010212210,
1022102210012210,
0012210010212210,
0012210012212210,
#BPMCHANGE 159.12
0000000000000002,
#BPMCHANGE 158
1010101121111002,
1010101121111000,
1010101121121000,
1010101121212222,
1010101121112002,
1010101121112010,
1120120211201202,
1020202211111002,
1010101121112002,
1010101121112000,
1010101121121000,
1010101122112222,
1010101121112002,
1010101121112020,
1120120211201202,
1020202211112222,
2010101010210210,
0010101012210000,
2212101010210210,
2212101012210000,
2212101012212210,
2212101212210000,
2212121212212212,
1,
#SCROLL 0.5
100100200002,
200000100100200000000020,
100100200002,
200000100100200000000020,
100102100002,
100000100100200000000020,
100102100002,
200000100100200000000020,
100112100001,
200000100100200000000020,
102112100002,
200000100100200000000020,
102122100002,
200000100100200000000020,
102112100000,
#SCROLL 1
2112100011103030,//54
#GOGOSTART
1012201202122210,
2212221112122210,
1012201202122210,
2212221112121210,
1012201202122210,
2212221111122210,
1012201202122210,
2212121110303030,
1012201202122210,
2212221112122210,
1012201202102210,
2212221111121210,
1012201202122210,
2212221112122210,
1121121121211001,
#BPMCHANGE 156.82
2121122121211212,
#BPMCHANGE 158
1022102210212210,
0012210212210210,
0012210212210210,
0012210212210210,
1022102210212210,
0012212212212210,
#BPMCHANGE 159.21
2212212212212210,//77
#BPMCHANGE 159.5
#SCROLL 0.5
#GOGOEND
#BARLINEOFF
,
#BARLINEON
2,
#END
COURSE:Hard
LEVEL:8
SCOREINIT:540
SCOREDIFF:140
#START
,
,
1000100010010010,
0010010010010010,
1000100010010010,
,
1022102210010010,
0012210010010010,
0012210010010010,
0012210010010010,
1022102210010010,
0012210010010010,
0012210010010010,
#BPMCHANGE 159.12
0000000000000002,
#BPMCHANGE 158
1010100011111002,
1010100011111000,
1010100011111000,
1010100022222002,
1010100011111002,
1010100011111000,
1110222011102220,
500000000000000000000000000000000008000000000200,
1010200011111002,
1010200011111000,
1010200011111000,
1010200022222002,
1010100011111002,
1010100011111000,
1110222011102220,
500000000000000000000000000000000008000000000000,
0010101010010010,
0010101010010000,
0010101010010010,
0010101010010000,
0010101010012210,
0010101012210000,
0010101010010010,
1,
#SCROLL 0.5
12,
1120,
12,
1120,
12,
100100200002,
100000100002,
200100200002,
100100100001,
200000100100200000000020,
100100100002,
200000100100200000000020,
100100100002,
200000100100200000000020,
10111000,
#SCROLL 1
1111100000303030,//54
#GOGOSTART
1011101020100010,
1011101020102000,
1011101020100010,
1011101010303030,
1011101020100010,
1011101020102000,
1011101020102010,
1011101020303030,
1011101020102010,
1011101020102000,
1011101020102010,
1011101010303030,
1011101020102010,
500000000000000000000000000000000008000000000000,
1101102101011021,
#BPMCHANGE 156.82
0101102101011010,
#BPMCHANGE 158
1022102210012210,
0012210010012210,
0012210010012210,
0012210010012210,
1022102210012210,
0012210010012210,
#BPMCHANGE 159.21
0012210010012210,//77
#BPMCHANGE 159.5
#SCROLL 0.5
#GOGOEND
#BARLINEOFF
,
#BARLINEON
2,
,
,
,
#END
COURSE:Normal
LEVEL:6
SCOREINIT:870
SCOREDIFF:285
#START
,
,
1110,
0010010010000000,
1110,
,
1110,
0010010010000000,
0010010010000000,
0010010010000000,
1110,
0010010010000000,
0010010010000000,
#BPMCHANGE 159.12
,
#BPMCHANGE 158
10101110,
10101110,
1,
12,
10101110,
10101110,
1,
500000000000000000000000000000000008000000000000,
10101110,
10101110,
1,
12,
10101110,
10101110,
11,
500000000000000000000000000000000008000000000000,
0000000010010010,
0000000010010000,
0000000010010010,
0000000010010000,
0000000010010010,
0000000010010000,
0000000010010010,
,
#SCROLL 0.8
11,
1,
12,
1,
11,
1,
12,
1,
1110,
2220,
1110,
2220,
1110,
2220,
1110,
#SCROLL 1
03,//54
#GOGOSTART
11101110,
1110,
11101110,
1130,
11101110,
1110,
11101110,
11103000,
22202220,
2220,
22202220,
2240,
11101110,
500000000000000000000000000000000008000000000000,
11111000,
#BPMCHANGE 156.82
11111000,
#BPMCHANGE 158
1110,
0010010010000000,
0010010010000000,
0010010010000000,
1110,
0010010010000000,
#BPMCHANGE 159.21
0010010010000000,//77
#BPMCHANGE 159.5
#GOGOEND
,
2,
,
,
,
#END
COURSE:Easy
LEVEL:3
SCOREINIT:630
SCOREDIFF:235
#START
,
,
1110,
11,
1110,
,
1110,
11,
11,
11,
1110,
11,
11,
#BPMCHANGE 159.12
,
#BPMCHANGE 158
1011,
1011,
1,
2,
1011,
1011,
1,
500000000000000000000000000008000000000000000000,
1011,
1011,
1,
2,
1011,
1011,
11,
500000000000000000000000000000000008000000000000,
0011,
0011,
0011,
0011,
0011,
0011,
0011,
1,
#SCROLL 0.8
11,
1,
11,
1,
22,
2,
22,
2,
11,
11,
11,
11,
22,
22,
22,
#SCROLL 1
03,//54
#GOGOSTART
1111,
1110,
1111,
13,
1111,
1110,
1111,
13,
2222,
2220,
2222,
24,
1110,
500000000000000000000000000008000000000000000000,
1110,
#BPMCHANGE 156.82
1110,
#BPMCHANGE 158
1110,
11,
11,
11,
1110,
11,
#BPMCHANGE 159.21
11,//77
#BPMCHANGE 159.5
#GOGOEND
1,
2,
,
,
,
#END