Files
TJA-by-song-no/tja/380.tja
2026-03-04 23:59:27 +09:00

206 lines
3.2 KiB
Plaintext
Raw Blame History

This file contains ambiguous Unicode characters
This file contains Unicode characters that might be confused with other characters. If you think that this is intentional, you can safely ignore this warning. Use the Escape button to reveal them.
//TJADB Project
TITLE:Rain
TITLEJA:レイン
SUBTITLE:--SID/Fullmetal Alchemist Brotherhood
SUBTITLEJA:「鋼の錬金術師 FULLMETAL ALCHEMIST」OP曲
BPM:95
WAVE:Rain.ogg
OFFSET:-2.827
DEMOSTART:42.603
COURSE:Oni
LEVEL:7
BALLOON:10
SCOREINIT:950
SCOREDIFF:220
#START
10011010,
10011000,
0000101110001000,
11000001,
1000101110000010,
1000101110000011,
1010002220202000,
500000000000000000000008000000000000000000000000,
3030040400210220,
1010210102100110,
1001201220021012,
1001201220021010,
3030040401102110,
1010210102100000,
1002001002212120,
101010101010100100100100100000300000400000400000,//16
#SCROLL 1.5
#GOGOSTART
1010202110212022,
1201221202012020,
1010202112012020,
1201221201204040,
1010202110212022,
1201221202012020,
100100000100200000100200000100100000202020101010,
100100000100200000400000102020102020101010101010,
200000202020200000200200200000202020200000200200,
200200000200200000200200000200000200200000202020,
200000000200200000202020200000200200200000200000,
70000833,
1010202110212022,
1201221202012020,
100100000100200000100200000100100000202020101010,
100100000100200000100200101010202020101010101000,
3,
#GOGOEND
#END
COURSE:Hard
LEVEL:5
BALLOON:8,8
#START
10011010,
10011000,
0000101110001000,
11000001,
1000001011100010,
1000101110000011,
1010002220202000,
500000000000000000000008000000000000000000000000,
3030040400000220,
1000200110200010,
1001201010012010,
1001201020012000,
3030040400000220,
10003001,
1001201010012010,
1001201030304040,//16
#SCROLL 1.5
#GOGOSTART
1000101010222020,
1001102000001010,
1000101110102020,
70000844,
1000101010222020,
1001102000000010,
1001101001101011,
1001102000004040,
4000202020222020,
2002202000002020,
2000202220202020,
70000811,
1000101010222020,
1001102000000010,
1001101001101011,
1001102000404040,
6,
000000000000000000000000000000000000000000000008,//34
#GOGOEND
,
,
#END
COURSE:Normal
LEVEL:4
BALLOON:25
#START
10011000,
10011000,
2220,
1,
10111000,
10111000,
1122,
500000000000000000000008000000000000000000000000,
33000000,
11002200,
10111020,
10111000,
33000000,
11002200,
10111020,
30303340,//16
#SCROLL 1.5
#GOGOSTART
10111220,
500000000000000000000008000000000000100000100000,
10111220,
10110040,
10111220,
500000000000000000000008000000000000000000100000,
10110112,
20220040,
10111220,
500000000000000000000008000000000000100000100000,
10111220,
10110040,
10111220,
10110001,
10110112,
20220220,
9,
009,//34
#GOGOEND
8,
,
#END
COURSE:Easy
LEVEL:3
BALLOON:15
#START
10011000,
10011000,
1110,
1,
1110,
1110,
1122,
500000000000000000000008000000000000000000000000,
33000000,
2220,
10011000,
10011000,
33000000,
2220,
1110,
3330,//16
#SCROLL 1.5
#GOGOSTART
10111010,
500000000000000000000000000008000000000000000000,
10111010,
10110000,
10111010,
500000000000000000000000000008000000000000000000,
10110110,
600000000000000000000000000000000008000000000000,
10111010,
500000000000000000000000000008000000000000000000,
10111010,
10110000,
10111010,
500000000000000000000000000008000000000000000000,
10110110,
600000000000000000000000000000000008000000000000,
9,
009,//34
#GOGOEND
8,
,
#END