1014 lines
8.9 KiB
Plaintext
1014 lines
8.9 KiB
Plaintext
//TJADB Project
|
|
TITLE:χdan
|
|
TITLEJA:χ談
|
|
SUBTITLE:--Kaneko Chiharu
|
|
SUBTITLEJA:かねこちはる
|
|
BPM:270
|
|
WAVE:Kaidan.ogg
|
|
OFFSET:-2.402
|
|
DEMOSTART:5.939
|
|
|
|
//shinuchi: 5760/4290/2210/1050
|
|
|
|
COURSE:Oni
|
|
LEVEL:10
|
|
BALLOON:3
|
|
SCOREINIT:390,1060
|
|
SCOREDIFF:98
|
|
|
|
#START
|
|
2000000020000002,
|
|
0000020000200020,
|
|
0200202022222222,
|
|
2, //4
|
|
|
|
11212212,
|
|
12212212,
|
|
12212212,
|
|
11211120,
|
|
|
|
21012021,
|
|
01201222,
|
|
11211210,
|
|
1111101111102000, //12
|
|
|
|
11121121,
|
|
12212212,
|
|
12212112,
|
|
12212210,
|
|
|
|
12021012,
|
|
01201222,
|
|
1111102011111020,
|
|
100100100100100000200000500000000000000008000000, //20
|
|
|
|
100000200000100000200222,
|
|
12021120,
|
|
10201021,
|
|
100200000200100000200222,
|
|
|
|
100000200000100000200222,
|
|
12221022,
|
|
1,
|
|
2, //28
|
|
|
|
20210200,
|
|
20120202,
|
|
10120200,
|
|
12221202,
|
|
|
|
10120200,
|
|
20120202,
|
|
100000000000100000200000000002000000000000000000,
|
|
4, //36
|
|
|
|
11210102,
|
|
12210102,
|
|
11210100,
|
|
12221202,
|
|
|
|
11210202,
|
|
12210202,
|
|
11210202,
|
|
12221201, //44
|
|
|
|
200200100200202020202000,
|
|
02212120,
|
|
100200200100202020202000,
|
|
02221220,
|
|
|
|
10201221,
|
|
202020100100000100200200,
|
|
10201221,
|
|
202020100200101010200000, //52
|
|
|
|
200200100200202020102000,
|
|
01221220,
|
|
100200200100202020102000,
|
|
01222120,
|
|
|
|
11212212,
|
|
21221121,
|
|
221221221221,
|
|
0, //60
|
|
|
|
#BPMCHANGE 145
|
|
#SCROLL 0.75
|
|
100000200000111110200200,
|
|
100000200000100100100100202010202020102020100000,
|
|
100200100000200000000000102010201020100000200000,
|
|
100000200200100000200000102020102020100200200200,
|
|
|
|
100000200000100000000000100200200200102020201020,
|
|
1022102010021020,
|
|
100000202020100000202020100100200000100000200000,
|
|
100000200000200200100200100200200200101010101010, //68
|
|
|
|
202020202020200100200200200100200200200010002000,
|
|
100000200000100000200200100200200200102020102020,
|
|
100111200000000000000000,
|
|
200000100000200000100100201010102010100200200200,
|
|
|
|
100000200000100100200000100200000100202020102020,
|
|
1222101020021022,
|
|
101010200200101010200200100100200000200000200000,
|
|
100000200000102020102020100200100000200000000000, //76
|
|
|
|
#BPMCHANGE 270
|
|
#SCROLL 0.7
|
|
12221211,
|
|
2020102011102000,
|
|
#SCROLL 0.75
|
|
12221121,
|
|
2010102011102000,
|
|
|
|
#SCROLL 0.8
|
|
12221121,
|
|
1020202011102000,
|
|
#SCROLL 0.85
|
|
12221212,
|
|
1110201000000000, //84
|
|
|
|
#SCROLL 0.9
|
|
2020201022202010,
|
|
#SCROLL 0.95
|
|
2020102022202010,
|
|
#SCROLL 1
|
|
2020201022202010,
|
|
#SCROLL 1.05
|
|
2212
|
|
#SCROLL 4.44
|
|
7008, //88
|
|
|
|
#SCROLL 1.1
|
|
1111111122222222,
|
|
1111111122222222,
|
|
1,
|
|
0,
|
|
1111111122222220,
|
|
#SCROLL 1
|
|
0, //94
|
|
|
|
#GOGOSTART
|
|
10221202,
|
|
10221201,
|
|
1020002010222020,
|
|
00210212,
|
|
|
|
00221202,
|
|
11221202,
|
|
0020102010221020,
|
|
02020000, //102
|
|
|
|
12210211,
|
|
22120211,
|
|
2010102000200022,
|
|
1000202010222020,
|
|
|
|
10211221,
|
|
21120212,
|
|
1110201120201020,
|
|
1110101110101110, //110
|
|
|
|
20221201,
|
|
2010202010221020,
|
|
12020212,
|
|
01221212,
|
|
|
|
00221201,
|
|
2010202010221020,
|
|
1022102010221020,
|
|
000200002200000000000000,
|
|
|
|
11221212,
|
|
102020100100200200100200,
|
|
1111201010201020,
|
|
202020100200102020100200, //122
|
|
#GOGOEND
|
|
|
|
#BPMCHANGE 250
|
|
#SCROLL 1.08
|
|
1
|
|
#SCROLL 1.06
|
|
0
|
|
#SCROLL 1.04
|
|
2
|
|
#SCROLL 1.02
|
|
0
|
|
#BPMCHANGE 229.07
|
|
#SCROLL 1.1
|
|
1
|
|
#SCROLL 1.08
|
|
2
|
|
#SCROLL 1.06
|
|
2
|
|
#SCROLL 1.04
|
|
1, //123
|
|
|
|
#BPMCHANGE 207.5
|
|
#SCROLL 1.12
|
|
100
|
|
#SCROLL 1.1
|
|
020
|
|
#SCROLL 1.08
|
|
002
|
|
#SCROLL 1.06
|
|
000
|
|
#SCROLL 1.03
|
|
100000
|
|
#SCROLL 1.01
|
|
100000
|
|
#BPMCHANGE 191.41
|
|
#SCROLL 1.07
|
|
000000
|
|
#BPMCHANGE 192.74
|
|
#SCROLL 1.04
|
|
100000
|
|
#BPMCHANGE 191.85
|
|
#SCROLL 1.02
|
|
200000
|
|
#BPMCHANGE 199.76
|
|
#SCROLL 0.96
|
|
200000, //124
|
|
|
|
#BPMCHANGE 170.37
|
|
#SCROLL 1.1
|
|
100
|
|
#SCROLL 1.07
|
|
000
|
|
#SCROLL 1.04
|
|
000
|
|
#SCROLL 1.02
|
|
000
|
|
#BPMCHANGE 150.87
|
|
#SCROLL 1.12
|
|
200
|
|
#SCROLL 1.09
|
|
020
|
|
#SCROLL 1.05
|
|
002
|
|
#SCROLL 1.02
|
|
000, //125
|
|
|
|
#BPMCHANGE 150
|
|
#SCROLL 1
|
|
1,
|
|
#BARLINEOFF
|
|
0,
|
|
0,
|
|
0,
|
|
0,
|
|
0, //131
|
|
#END
|
|
|
|
|
|
COURSE:Hard
|
|
LEVEL:8
|
|
BALLOON:7,7,25,13,7,7,7,7,2,13
|
|
SCOREINIT:680,2400
|
|
SCOREDIFF:163
|
|
|
|
#START
|
|
1000000010000001,
|
|
0000010000100010,
|
|
0700000000000000,
|
|
8, //4
|
|
|
|
10110100,
|
|
10110100,
|
|
10110100,
|
|
10110200,
|
|
|
|
11011011,
|
|
02200000,
|
|
7,
|
|
8, //12
|
|
|
|
10110100,
|
|
10110100,
|
|
10110100,
|
|
10110200,
|
|
|
|
11011011,
|
|
02200000,
|
|
5,
|
|
000000000000000000000000000000000008000000000000, //20
|
|
|
|
20002002,
|
|
02002000,
|
|
20002002,
|
|
02002000,
|
|
|
|
20002002,
|
|
02002000,
|
|
1,
|
|
2, //28
|
|
|
|
10220200,
|
|
10220200,
|
|
10220200,
|
|
22220200,
|
|
|
|
10220200,
|
|
10220200,
|
|
10220200,
|
|
4, //36
|
|
|
|
10110200,
|
|
10110200,
|
|
10110200,
|
|
11110200,
|
|
|
|
10110200,
|
|
10110200,
|
|
10110200,
|
|
20220200, //44
|
|
|
|
10002002,
|
|
0120,
|
|
10002002,
|
|
0120,
|
|
|
|
10100110,
|
|
10110222,
|
|
00100110,
|
|
10110000, //52
|
|
|
|
10002002,
|
|
0120,
|
|
10002002,
|
|
0120,
|
|
|
|
7,
|
|
0,
|
|
0,
|
|
8, //60
|
|
|
|
#BPMCHANGE 145
|
|
#SCROLL 0.75
|
|
1112,
|
|
1000111020000000,
|
|
1400,
|
|
1000200011102000,
|
|
|
|
1000100022202220,
|
|
1400,
|
|
1110111022202000,
|
|
12121270, //68
|
|
|
|
0008,
|
|
1010200011102220,
|
|
1400,
|
|
1110100022202000,
|
|
|
|
1000200022202220,
|
|
1110400000000000,
|
|
1110111022202000,
|
|
12121120, //76
|
|
|
|
#BPMCHANGE 270
|
|
#SCROLL 0.7
|
|
7,
|
|
8,
|
|
#SCROLL 0.75
|
|
7,
|
|
8,
|
|
|
|
#SCROLL 0.8
|
|
7,
|
|
8,
|
|
#SCROLL 0.85
|
|
7,
|
|
8, //84
|
|
|
|
#SCROLL 0.9
|
|
10110100,
|
|
#SCROLL 0.95
|
|
20220200,
|
|
#SCROLL 1
|
|
10110100,
|
|
#SCROLL 1.05
|
|
0000
|
|
#SCROLL 4.44
|
|
7008,
|
|
|
|
#SCROLL 1.1
|
|
11111111,
|
|
22222222,
|
|
3,
|
|
0,
|
|
0,
|
|
#SCROLL 1
|
|
0, //94
|
|
|
|
#GOGOSTART
|
|
10110200,
|
|
10110202,
|
|
22020000,
|
|
00220202,
|
|
|
|
00110200,
|
|
10110202,
|
|
02020222,
|
|
02020000, //102
|
|
|
|
10110200,
|
|
10110200,
|
|
10110200,
|
|
2,
|
|
|
|
10220100,
|
|
10220202,
|
|
7,
|
|
0008, //110
|
|
|
|
10210200,
|
|
10210202,
|
|
11020000,
|
|
00220202,
|
|
|
|
00210200,
|
|
10210202,
|
|
02020222,
|
|
02020000,
|
|
|
|
10200222,
|
|
10220222,
|
|
10200222,
|
|
10220222, //122
|
|
#GOGOEND
|
|
|
|
#BPMCHANGE 250
|
|
#SCROLL 1.08
|
|
1
|
|
#SCROLL 1.06
|
|
0
|
|
#SCROLL 1.04
|
|
2
|
|
#SCROLL 1.02
|
|
0
|
|
#BPMCHANGE 229.07
|
|
#SCROLL 1.1
|
|
0
|
|
#SCROLL 1.08
|
|
2
|
|
#SCROLL 1.06
|
|
2
|
|
#SCROLL 1.04
|
|
2, //123
|
|
|
|
#BPMCHANGE 207.5
|
|
#SCROLL 1.12
|
|
1
|
|
#SCROLL 1.1
|
|
0
|
|
#SCROLL 1.08
|
|
0
|
|
#SCROLL 1.06
|
|
0
|
|
#SCROLL 1.03
|
|
20
|
|
#SCROLL 1.01
|
|
20
|
|
#BPMCHANGE 191.41
|
|
#SCROLL 1.07
|
|
00
|
|
#BPMCHANGE 192.74
|
|
#SCROLL 1.04
|
|
20
|
|
#BPMCHANGE 191.85
|
|
#SCROLL 1.02
|
|
20
|
|
#BPMCHANGE 199.76
|
|
#SCROLL 0.96
|
|
20, //124
|
|
|
|
#BPMCHANGE 170.37
|
|
#SCROLL 1.1
|
|
100
|
|
#SCROLL 1.07
|
|
000
|
|
#SCROLL 1.04
|
|
000
|
|
#SCROLL 1.02
|
|
000
|
|
#BPMCHANGE 150.87
|
|
#SCROLL 1.12
|
|
200
|
|
#SCROLL 1.09
|
|
020
|
|
#SCROLL 1.05
|
|
002
|
|
#SCROLL 1.02
|
|
000, //125
|
|
|
|
#BPMCHANGE 150
|
|
#SCROLL 1
|
|
1,
|
|
#BARLINEOFF
|
|
0,
|
|
0,
|
|
0,
|
|
0,
|
|
0, //131
|
|
#END
|
|
|
|
|
|
COURSE:Normal
|
|
LEVEL:7
|
|
BALLOON:7,5,16,10,5,5,5,5,7,9,7
|
|
SCOREINIT:1030,4740
|
|
SCOREDIFF:283
|
|
|
|
#START
|
|
1000000010000001,
|
|
0000010000700000,
|
|
0,
|
|
8, //4
|
|
|
|
10010000,
|
|
10010000,
|
|
10010000,
|
|
2,
|
|
|
|
10001001,
|
|
0200,
|
|
7,
|
|
8, //12
|
|
|
|
10010000,
|
|
20020000,
|
|
10010000,
|
|
20020000,
|
|
|
|
10001001,
|
|
0200,
|
|
5,
|
|
000000000000000000000000000000000008000000000000, //20
|
|
|
|
2,
|
|
02,
|
|
2,
|
|
02,
|
|
|
|
2,
|
|
22,
|
|
2,
|
|
2, //28
|
|
|
|
10010000,
|
|
10010000,
|
|
10010000,
|
|
2,
|
|
|
|
10010000,
|
|
10010000,
|
|
10010000,
|
|
4, //36
|
|
|
|
10010100,
|
|
10010100,
|
|
10010100,
|
|
2,
|
|
|
|
10010100,
|
|
10010100,
|
|
10010100,
|
|
20020200, //44
|
|
|
|
1,
|
|
01,
|
|
2,
|
|
2,
|
|
|
|
1100,
|
|
1,
|
|
1100,
|
|
1, //52
|
|
|
|
2,
|
|
0222,
|
|
22,
|
|
22,
|
|
|
|
7,
|
|
0,
|
|
0,
|
|
8, //60
|
|
|
|
#BPMCHANGE 145
|
|
#SCROLL 0.75
|
|
1112,
|
|
1120,
|
|
1200,
|
|
1110,
|
|
|
|
1112,
|
|
1200,
|
|
1120,
|
|
1117, //68
|
|
|
|
0008,
|
|
1122,
|
|
1200,
|
|
1122,
|
|
|
|
1122,
|
|
1200,
|
|
1122,
|
|
1110, //76
|
|
|
|
#BPMCHANGE 270
|
|
#SCROLL 0.7
|
|
7,
|
|
8,
|
|
#SCROLL 0.75
|
|
7,
|
|
8,
|
|
|
|
#SCROLL 0.8
|
|
7,
|
|
8,
|
|
#SCROLL 0.85
|
|
7,
|
|
8, //84
|
|
|
|
#SCROLL 0.9
|
|
3,
|
|
#SCROLL 0.95
|
|
4,
|
|
#SCROLL 1
|
|
3,
|
|
#SCROLL 1.05
|
|
4,
|
|
|
|
#SCROLL 1.1
|
|
6,
|
|
000000000000000000000000000000000000000000000008,
|
|
0,
|
|
0,
|
|
0,
|
|
#SCROLL 1
|
|
0, //94
|
|
|
|
#GOGOSTART
|
|
10100100,
|
|
10100101,
|
|
02020000,
|
|
00200200,
|
|
|
|
10100100,
|
|
10100101,
|
|
07000000,
|
|
08, //102
|
|
|
|
10100200,
|
|
10100200,
|
|
10100200,
|
|
2,
|
|
|
|
20200200,
|
|
20200202,
|
|
7,
|
|
0008, //110
|
|
|
|
10100100,
|
|
10100101,
|
|
02020000,
|
|
00200200,
|
|
|
|
10100100,
|
|
10100101,
|
|
07000000,
|
|
08,
|
|
|
|
1100,
|
|
10010000,
|
|
2200,
|
|
20020000,//122
|
|
#GOGOEND
|
|
|
|
#BPMCHANGE 250
|
|
#SCROLL 1.08
|
|
1
|
|
#SCROLL 1.06
|
|
0
|
|
#SCROLL 1.04
|
|
0
|
|
#SCROLL 1.02
|
|
0
|
|
#BPMCHANGE 229.07
|
|
#SCROLL 1.1
|
|
1
|
|
#SCROLL 1.08
|
|
0
|
|
#SCROLL 1.06
|
|
0
|
|
#SCROLL 1.04
|
|
0, //123
|
|
|
|
#BPMCHANGE 207.5
|
|
#SCROLL 1.12
|
|
1
|
|
#SCROLL 1.1
|
|
0
|
|
#SCROLL 1.08
|
|
0
|
|
#SCROLL 1.06
|
|
0
|
|
#SCROLL 1.03
|
|
00
|
|
#SCROLL 1.01
|
|
00
|
|
#BPMCHANGE 191.41
|
|
#SCROLL 1.07
|
|
10
|
|
#BPMCHANGE 192.74
|
|
#SCROLL 1.04
|
|
00
|
|
#BPMCHANGE 191.85
|
|
#SCROLL 1.02
|
|
00
|
|
#BPMCHANGE 199.76
|
|
#SCROLL 0.96
|
|
00, //124
|
|
|
|
#BPMCHANGE 170.37
|
|
#SCROLL 1.1
|
|
2
|
|
#SCROLL 1.07
|
|
0
|
|
#SCROLL 1.04
|
|
0
|
|
#SCROLL 1.02
|
|
0
|
|
#BPMCHANGE 150.87
|
|
#SCROLL 1.12
|
|
1
|
|
#SCROLL 1.09
|
|
0
|
|
#SCROLL 1.05
|
|
0
|
|
#SCROLL 1.02
|
|
0, //125
|
|
|
|
#BPMCHANGE 150
|
|
#SCROLL 1
|
|
1,
|
|
#BARLINEOFF
|
|
0,
|
|
0,
|
|
0,
|
|
0,
|
|
0, //131
|
|
#END
|
|
|
|
|
|
COURSE:Easy
|
|
LEVEL:5
|
|
BALLOON:5,4,10,6,3,3,3,3,5
|
|
SCOREINIT:740,6290
|
|
SCOREDIFF:218
|
|
|
|
#START
|
|
1000000010000001,
|
|
0000010000700000,
|
|
0,
|
|
8, //4
|
|
|
|
1,
|
|
1,
|
|
1,
|
|
2,
|
|
|
|
11,
|
|
1,
|
|
7,
|
|
8, //12
|
|
|
|
1,
|
|
1,
|
|
1,
|
|
2,
|
|
|
|
11,
|
|
1,
|
|
5,
|
|
000000000000000000000000000008000000000000000000, //20
|
|
|
|
2,
|
|
02,
|
|
2,
|
|
02,
|
|
|
|
2,
|
|
22,
|
|
2,
|
|
2, //28
|
|
|
|
1,
|
|
1,
|
|
1,
|
|
2,
|
|
|
|
1,
|
|
1,
|
|
1,
|
|
4, //36
|
|
|
|
11,
|
|
11,
|
|
11,
|
|
2,
|
|
|
|
11,
|
|
11,
|
|
11,
|
|
2, //44
|
|
|
|
1,
|
|
01,
|
|
1,
|
|
1,
|
|
|
|
1,
|
|
2,
|
|
1,
|
|
2, //52
|
|
|
|
2,
|
|
02,
|
|
22,
|
|
22,
|
|
|
|
7,
|
|
0,
|
|
0,
|
|
8, //60
|
|
|
|
#BPMCHANGE 145
|
|
#SCROLL 0.75
|
|
1110,
|
|
1120,
|
|
1200,
|
|
1110,
|
|
|
|
1120,
|
|
1200,
|
|
1120,
|
|
1117, //68
|
|
|
|
0008,
|
|
1122,
|
|
1200,
|
|
1120,
|
|
|
|
1122,
|
|
1200,
|
|
1120,
|
|
1110, //76
|
|
|
|
#BPMCHANGE 270
|
|
#SCROLL 0.7
|
|
7,
|
|
8,
|
|
#SCROLL 0.75
|
|
7,
|
|
8,
|
|
|
|
#SCROLL 0.8
|
|
7,
|
|
8,
|
|
#SCROLL 0.85
|
|
7,
|
|
8, //84
|
|
|
|
#SCROLL 0.9
|
|
3,
|
|
#SCROLL 0.95
|
|
3,
|
|
#SCROLL 1
|
|
3,
|
|
#SCROLL 1.05
|
|
3,
|
|
|
|
#SCROLL 1.1
|
|
6,
|
|
000000000000000000000000000000000000000000000008,
|
|
0,
|
|
0,
|
|
0,
|
|
#SCROLL 1
|
|
0, //94
|
|
|
|
#GOGOSTART
|
|
1100,
|
|
1100,
|
|
0,
|
|
2,
|
|
|
|
1100,
|
|
1100,
|
|
0,
|
|
2, //102
|
|
|
|
1100,
|
|
1100,
|
|
1100,
|
|
2,
|
|
|
|
1100,
|
|
1100,
|
|
7,
|
|
00000800, //110
|
|
|
|
1100,
|
|
1100,
|
|
0,
|
|
2,
|
|
|
|
1100,
|
|
1100,
|
|
1100,
|
|
2,
|
|
|
|
11,
|
|
11,
|
|
11,
|
|
22, //122
|
|
#GOGOEND
|
|
|
|
#BPMCHANGE 250
|
|
#SCROLL 1.08
|
|
1
|
|
#SCROLL 1.06
|
|
0
|
|
#SCROLL 1.04
|
|
0
|
|
#SCROLL 1.02
|
|
0
|
|
#BPMCHANGE 229.07
|
|
#SCROLL 1.1
|
|
1
|
|
#SCROLL 1.08
|
|
0
|
|
#SCROLL 1.06
|
|
0
|
|
#SCROLL 1.04
|
|
0, //123
|
|
|
|
#BPMCHANGE 207.5
|
|
#SCROLL 1.12
|
|
1
|
|
#SCROLL 1.1
|
|
0
|
|
#SCROLL 1.08
|
|
0
|
|
#SCROLL 1.06
|
|
0
|
|
#SCROLL 1.03
|
|
00
|
|
#SCROLL 1.01
|
|
00
|
|
#BPMCHANGE 191.41
|
|
#SCROLL 1.07
|
|
10
|
|
#BPMCHANGE 192.74
|
|
#SCROLL 1.04
|
|
00
|
|
#BPMCHANGE 191.85
|
|
#SCROLL 1.02
|
|
00
|
|
#BPMCHANGE 199.76
|
|
#SCROLL 0.96
|
|
00, //124
|
|
|
|
#BPMCHANGE 170.37
|
|
#SCROLL 1.1
|
|
2
|
|
#SCROLL 1.07
|
|
0
|
|
#SCROLL 1.04
|
|
0
|
|
#SCROLL 1.02
|
|
0
|
|
#BPMCHANGE 150.87
|
|
#SCROLL 1.12
|
|
1
|
|
#SCROLL 1.09
|
|
0
|
|
#SCROLL 1.05
|
|
0
|
|
#SCROLL 1.02
|
|
0, //125
|
|
|
|
#BPMCHANGE 150
|
|
#SCROLL 1
|
|
1,
|
|
#BARLINEOFF
|
|
0,
|
|
0,
|
|
0,
|
|
0,
|
|
0, //131
|
|
#END |