Files
TJA-by-song-no/tja/703.tja
2026-03-04 23:59:27 +09:00

440 lines
5.3 KiB
Plaintext

//TJADB Project
TITLE:Konamono☆
TITLEJA:コナモノ☆
SUBTITLE:--Takurou Gou
SUBTITLEJA:郷 拓郎
BPM:160
WAVE:Konamono.ogg
OFFSET:-1.701
DEMOSTART:1.701
//shinuchi: 5320/3540/2290/1660
COURSE:Oni
LEVEL:8
BALLOON:20,5
SCOREINIT:540,1740
SCOREDIFF:138
#START
0,
2000200020111020,
0020201120021022,
1000100010222010,
0010102210121020,
12120212,
0020002210201020,
1022102010221020,
0020102210121010, //9
02101212,
0020002210201020,
1022102010221020,
0020102210121020,
10120210,
1020100010121020,
1022102010221020,
0020102210121010, //17
02101012,
0020101110121020,
1022102010222010,
0020112000202020,
1000202210102000,
1000201022102000,
1000202010102022,
1000202022102021,
1000202010102022,
1000202022102021,
1000200011222010,
0010400040002220, //29
#GOGOSTART
1111202210102022,
1000201220112000,
3022203000222030,
0022201220112002,
1020102011112012,
2210200010002000,
1020102011112012,
2210200010002002,
1020102010112012,
2210200010002000,
1020102011122210,
03303222, //41
#GOGOEND
1111,
100000100000100000100222,
1000100010001001,
100000000000100000000100100000000000100000202010,
1000100010001001,
1000100010001001,
10011011,
01404120, //49
#GOGOSTART
1111222210102022,
1011201220112000,
3022203000222030,
0011201000112222,
#GOGOEND
1000202212102000,
1000201012112021,
1000201210102000,
1000201012112221,
1000200210012010,
1000221022102001,
10201011,
0000400040012022, //61
#GOGOSTART
1112111210211022,
2000100011121020,
3011203000221030,
0022102211012222,
1110200011112022,
1011200211121020,
1221001221001221,
0210200112221022, //69
1220100220102070,
#BARLINEOFF
000000000000000000000000000000000000000000000008,
0,
#SCROLL 0.5
0000000000000011,
#SCROLL 4
7800, //74
#END
COURSE:Hard
LEVEL:6
BALLOON:24
SCOREINIT:580,2340
SCOREDIFF:150
#START
0,
10101021,
0020100020020020,
10101021,
0020100020222020,
10121021,
0010001110201000,
1000100010222010,
0020100020020010, //9
02101121,
0010001110201000,
1000100011102010,
0020100020020010,
1000102000201110,
12101210,
1000100010222010,
0020100020020010, //17
0020100010002011,
12101210,
1000100011102010,
02100222,
1000200010102011,
1000201011102000,
1000200010102011,
1000202011102000,
1000200010102011,
1000201011102000,
1000200011102010,
01404000, //29
#GOGOSTART
500000000000000000000008000000100000200000000000,
1000201110102000,
1022201000222010,
0022201000102000,
10201121,
01201020,
1000200110102010,
0010200010002001,
10201121,
01201020,
1000100010222010,
0020111010202020, //41
#GOGOEND
1111,
1111,
1000100010001001,
1020100110001001,
1000100010001001,
1000100010001001,
10101011,
01404000, //49
#GOGOSTART
500000000000000000000008000000100000200000000000,
1000201110102000,
1022201000222010,
0022201000102001,
#GOGOEND
1000200110102011,
1000201011102011,
1000200010102011,
1000201110102011,
1000200110102010,
1000201022202001,
10201021,
01404000, //61
#GOGOSTART
500000000000000000000008000000100000200000000000,
1000201110102000,
1022201000222010,
0022201000102001,
1020100010222022,
2011100110011020,
1000201001102011,
1020111110002000, //69
1000100010222090,
#BARLINEOFF
0,
000000000000090000000000,
000008000000000000000000000000000000000000000000,
0, //74
#END
COURSE:Normal
LEVEL:5
BALLOON:5,5,3,16
SCOREINIT:680,3820
SCOREDIFF:190
#START
0,
10101001,
01101000,
10101001,
01102000,
10110110,
01010110,
10101001,
01102001, //9
01101011,
01010110,
10101001,
01102000,
10110110,
11101110,
10101001,
01102001, //17
01101011,
01101110,
10101001,
01100220,
10201110,
10222010,
10201110,
10222010,
10201110,
10222010,
10201011,
0440, //29
#GOGOSTART
500000000000000000000008000000000000100000000000,
10201110,
10220115,
000000000000000008000000000000000000200000000000,
10201002,
01101020,
10201002,
01101020,
10201002,
01101020,
30303003,
03303000, //41
#GOGOEND
500000000000000000000008000000000000100000100000,
1112,
10001011,
00001105,
000000000000000008000000100000000000100000000000,
1112,
10001011,
0440, //49
#GOGOSTART
500000000000000000000008000000000000100000000000,
10201110,
10220115,
000000000000000008000000000000000000000000000000,
#GOGOEND
10201110,
10220110,
10201110,
10220110,
10201110,
10220110,
10201011,
0440, //61
#GOGOSTART
500000000000000000000008000000000000100000000000,
10201110,
10220115,
000000000000000008000000000000000000200000000000,
70008002,
01101020,
70008002,
01101020, //69
70801019,
#BARLINEOFF
0,
000000000000090000000000,
000008000000000000000000000000000000000000000000,
0, //74
#END
COURSE:Easy
LEVEL:4
BALLOON:12
SCOREINIT:610,5970
SCOREDIFF:208
#START
0,
10101001,
0110,
10101001,
0110,
1101,
0110,
10101001,
0110, //9
0110,
0110,
10101001,
0110,
1101,
11,
10101001,
0110, //17
0111,
0110,
10101001,
0110,
1011,
12,
1011,
12,
1011,
12,
10001001,
0440, //29
#GOGOSTART
500000000000000000000008000000000000000000000000,
1110,
30030006,
000000000000000008000000000000000000000000000000,
10101001,
0220,
10101001,
0220,
10101001,
0220,
30303004,
0440, //41
#GOGOEND
11,
11,
11,
1,
1110,
1110,
10001001,
0440, //49
#GOGOSTART
500000000000000000000008000000000000000000000000,
1110,
30030006,
000000000000000008000000000000000000000000000000,
#GOGOEND
1011,
12,
1011,
12,
1111,
12,
10001001,
0440, //61
#GOGOSTART
500000000000000000000008000000000000000000000000,
1110,
30030006,
000000000000000008000000000000000000000000000000,
10101001,
0220,
10101001,
0220, //69
10001009,
#BARLINEOFF
0,
000000000000090000000000,
000008000000000000000000000000000000000000000000,
0, //74
#END