Files
TJA-by-song-no/tja/845.tja
2026-03-04 23:59:27 +09:00

1250 lines
13 KiB
Plaintext
Raw Blame History

This file contains ambiguous Unicode characters
This file contains Unicode characters that might be confused with other characters. If you think that this is intentional, you can safely ignore this warning. Use the Escape button to reveal them.
//TJADB Project
TITLE:Dreadnought
TITLEJA:Dreadnought
SUBTITLE:--Mastermind [xi & nora2r]/BOFU2015
SUBTITLEJA:Mastermind(xinora2r)
BPM:192
WAVE:Dreadnought.ogg
OFFSET:-1.155
DEMOSTART:93.329
COURSE:Edit
LEVEL:10
BALLOON:2,2,2,2
SCOREINIT:340
SCOREDIFF:70
#START
300000000000000000000000000000000000000000000000,
000000000000000000000000000000000000000000000000,
000000000000000000000000000000000000000000000000,
000000000000000000000000000000000000202020200000,
100000000000000000100000100000000000000000000000,
000000000000000000100000100000000000000000100000,
200000000200000000200000200000200200202020200200,
100000000000000000000000200000000000200000000000,
200000200200000000202020200000000000000000200000,
200000000000000000000000000000000000000000000000,
300000100100000100000100100000100000100000000000,
100000100000100100000100100100100100100100100000,
300000100100000100000100100000100100100000000100,
100000100100100100100100100100100100200000000000,
300000100100200100000100100000100000200000100000,
300000100000200100000100100100100100200100100000,
300000100100200100000100100000100100200200000100,
200000000000100000000000202020200200100000000000,
300000100100200000100100100000100100200100200200,
100000100100200100200200100200200100200200200200,
100000100100200000100100100000100100200100200200,
100000100100200100200200100200200100200200100200,
100000100200100000200100200000100200100000200000,
100100200200100100200200100200100200101010101010,
200000000000200020002000200200202020200200200200,
100200100200100000100200100200100000700008000000,
300000000000100000000000100100200100200000200000,
100000000000100200200200100100200200100000000000,
100000000000100000200200100100200100200000200000,
100000000000100200200200100100200200100000202020,
100000200200100000200200100100200200100200200200,
100000200200200100100100200200100100200000000000,
300000100100200000101010200000100100200100100100,
200000100100200100100200100000000000400000202020,
100000000000100000000000100100000200100000200200,
100000200000100020002000100100200200100000000000,
100000000000100100100100100200000200100000200000,
100000200000100020002000100000000000200200202020,
100000000000200000100100200200100100200000100000,
200000200200200100100100200200100100200010001000,
200000100100200000101010200100100100200200200200,
100000101010200020002000300000300000400000000000,
#BPMCHANGE 96
#MEASURE 2/4
1,
22,
2002,
22,
1,
22,
20000022,
100000222222,
12,
22,
1022,
22,
1002,
2000000020020020,
2002,
100000000000222222700800,
#BPMCHANGE 192
#MEASURE 4/4
3022201220221022,
2012202212221222,
1022102220122222,
1022102211221222,
1022201220221022,
1022201022221222,
1022201210222012,
100000200200100000202020100000400000100200200200,
#BPMCHANGE 384
#MEASURE 1/8
#SCROLL 0.5
1,
#SCROLL 0.51
1,
1,
#SCROLL 0.52
1,
1,
#SCROLL 0.53
1,
#SCROLL 0.54
1,
1,
#SCROLL 0.55
1,
1,
#SCROLL 0.56
1,
#SCROLL 0.57
1,
1,
#SCROLL 0.58
1,
#SCROLL 0.59
1,
1,
#SCROLL 0.6
1,
#SCROLL 0.61
1,
1,
#SCROLL 0.62
1,
#SCROLL 0.63
1,
#SCROLL 0.64
1,
1,
#SCROLL 0.65
1,
#SCROLL 0.66
1,
#SCROLL 0.67
1,
1,
#SCROLL 0.68
1,
#SCROLL 0.69
1,
#SCROLL 0.7
1,
#SCROLL 0.71
1,
1,
#SCROLL 0.72
1,
#SCROLL 0.73
1,
#SCROLL 0.74
1,
#SCROLL 0.75
1,
#SCROLL 0.76
1,
1,
#SCROLL 0.77
1,
#SCROLL 0.78
1,
#SCROLL 0.79
1,
#SCROLL 0.8
1,
#SCROLL 0.81
1,
#SCROLL 0.82
1,
#SCROLL 0.83
1,
#SCROLL 0.84
1,
#SCROLL 0.85
1,
#SCROLL 0.86
1,
#SCROLL 0.87
1,
#SCROLL 0.88
1,
#SCROLL 0.89
1,
#SCROLL 0.9
1,
#SCROLL 0.91
1,
#SCROLL 0.92
1,
#SCROLL 0.93
1,
#SCROLL 0.94
1,
#SCROLL 0.95
1,
#SCROLL 0.96
1,
#SCROLL 0.97
1,
#SCROLL 0.98
1,
#SCROLL 0.99
1,
#SCROLL 1.01
1,
#SCROLL 1.02
1,
#SCROLL 1.03
1,
#SCROLL 1.04
1,
#SCROLL 1.05
1,
#SCROLL 1.06
1,
#SCROLL 1.08
1,
#SCROLL 1.09
1,
#SCROLL 1.1
1,
#SCROLL 1.11
1,
#SCROLL 1.13
1,
#SCROLL 1.14
1,
#SCROLL 1.15
1,
#SCROLL 1.17
1,
#SCROLL 1.18
1,
#SCROLL 1.19
1,
#SCROLL 1.21
1,
#SCROLL 1.22
1,
#SCROLL 1.24
1,
#SCROLL 1.25
101,
010,
101,
010,
101,
010,
101,
010,
101,
010,
101,
010,
101,
010,
101,
010,
#BPMCHANGE 96
#SCROLL 5
4,
#MEASURE 3/4
#BPMCHANGE 192
#SCROLL 1
300022222122,
#BARLINEOFF
#MEASURE 4/4
1221221221012222,//165
#BARLINEON
#GOGOSTART
1022101201221020,
1011202210212012,
1022101201221020,
1011202210212212,
1022101201221020,
100000100100200000100200200000102020100000200000,
300000101010200000102020200000000400000000400000,
0300400400302120,//173
#GOGOEND
000000101010//174
#GOGOSTART
200000100200000100200200100000200000,
100000100100200000200200100000200100200200101010,
2011202021202011,
244344,
101010100100100100100100200200200200200000100100,
202020200200200200200200100100100100100000200200,
101010100100100100100100202020200200200200200200,
1221122122227080,//181
#GOGOEND
3000102211212020,
1000122211221000,
1000122011212020,
100000000000100200200200100100200200101020200000,
3000200011120120,
3020211122112000,
300000100100200000101010200000100100200000101010,
2011201210302222,//189
#GOGOSTART
1022101201221020,
100000100100200000200200100000200100200200101010,
2011202021202011,
244344,
101010100100200100100100200200200200200000100100,
202020200200100200200200100100100100100000200200,
101010100100200100100100202020200200100200200200,
100200200100100200200100202020202020700000800000,//197
#GOGOEND
222111500000000000000000,
,
000000000008000000000000000000000000000000000000,
#END
COURSE:Oni
LEVEL:9
BALLOON:4,21,5
SCOREINIT:380
SCOREDIFF:110
#START
1,
2022,
22,
22,
1,
22,
2,
3,
2,
0000000022221212,
10020020,
02002020,
30200200,
20020200,
30020020,
32002020,
30203200,
500008000000500008000000700000000000800000000000,
3000201010112010,
1011201011222020,
3000201010122010,
1012201012222020,
3434,
33443434,
3,
2222202222203000,
1000100011112020,
1000112211112000,
1000102211112020,
1000112211112022,
1000102210112020,
1022102211112000,
3011201110112222,
1022112210112011,
1000101110121020,
100000000000100020002000100000100100200000000000,
1000111110121020,
100000000000100020002000100000000000200200200200,
1000202211112020,
100000100100200000200200100000100100200020002000,
1020201110202222,
100000101010100100400000,
#BPMCHANGE 96
#MEASURE 2/4
1,
22,
2002,
22,
1,
22,
22,
2,
12,
22,
1022,
22,
1002,
12,
1002,
14,
#BPMCHANGE 192
#MEASURE 4/4
3000200010112000,
1011102220221000,
3000200010112000,
1011102222221000,
3000201110112000,
3000102220221000,
3000200030002220,
3000400030401122,
#BPMCHANGE 384
#MEASURE 1/8
5,
,
,
,
,
,
,
,
,
,
,
,
,
,
,
,
,
,
,
,
,
,
,
,
,
,
,
,
,
,
,
,
,
,
,
,
,
,
,
,
,
,
,
,
,
,
,
,
,
,
,
,
,
,
,
,
,
,
,
,
,
,
,
,
,
,
,
,
,
,
,
,
,
,
,
,
,
,
,
,
,
,
,
,
,
,
,
,
,
,
,
,
,
,
,
080000,
#BPMCHANGE 96
#SCROLL 4
4,
#MEASURE 3/4
#BPMCHANGE 192
#SCROLL 1
7,
#MEASURE 4/4
0000000080002222,//165
#GOGOSTART
1022102011212020,
1011201110112000,
1022102011212020,
1011202210002222,
1022102011212020,
100000100100200000000000100000202020200000200000,
3011202210030030,
0400400400302120,//173
#GOGOEND
1000//174
#GOGOSTART
402011212020,
1011201110112020,
3011202011202011,
244333,
500000000000000000000000000000000080000000200200,
500000000000000000000000000000000080000000100100,
500000000000000008000000600000000000000008000000,
7000008022221000,//181
#GOGOEND
1000100011112020,
1000112211112000,
1000112011112020,
1000102210112222,
1000100010121020,
1000112211112000,
1011201110112011,
1011202210002222,//189
#GOGOSTART
1022102011212020,
1011201110112020,
3011202011202011,
244333,
500000000000000000000000000000000008000000200200,
500000000000000000000000000000000008000000100100,
500000000000000008000000600000000000000008000000,
2222222211221000,//197
#GOGOEND
222200500000000000000000,
,
000000000008000000000000000000000000000000000000,
#END
COURSE:Hard
LEVEL:6
BALLOON:6,7,14
SCOREINIT:470
SCOREDIFF:140
#START
1,
2022,
22,
22,
1,
22,
2,
3,
2,
,
10010010,
02002020,
00100100,
20020200,
10010010,
02002020,
00100100,
200000000000200000000000500000000000800000000000,
10101120,
10201220,
10101120,
10201220,
1122,
11112222,
1,
70000840,
10101122,
10221120,
10101122,
10221120,
10101122,
10221120,
10201122,
500000000000000000000000000000000008000000000000,
10101122,
10221120,
10101122,
10221120,
10101122,
10221120,
10201120,
7008,
#BPMCHANGE 96
#MEASURE 2/4
1,
22,
2,
2,
1,
22,
2,
2,
12,
22,
1,
22,
1,
12,
1,
14,
#BPMCHANGE 192
#MEASURE 4/4
30201120,
10111110,
30201120,
10112220,
30201120,
30201220,
3232,
30304400,
#BPMCHANGE 384
#MEASURE 1/8
5,
,
,
,
,
,
,
,
,
,
,
,
,
,
,
,
,
,
,
,
,
,
,
,
,
,
,
,
,
,
,
,
,
,
,
,
,
,
,
,
,
,
,
,
,
,
,
,
,
,
,
,
,
,
,
,
,
,
,
,
,
,
,
,
,
,
,
,
,
,
,
,
,
,
,
,
,
,
,
,
,
,
,
,
,
,
,
,
,
,
,
,
,
,
,
,
#BPMCHANGE 96
#SCROLL 4
080000,
#MEASURE 3/4
#BPMCHANGE 192
#SCROLL 1
7,
#MEASURE 4/4
0008,//165
#GOGOSTART
10120212,
1212,
10120212,
1220,
10120212,
10102211,
3000400030030030,
0300300300202020,//173
#GOGOEND
10//174
#GOGOSTART
120212,
1212,
10120220,
333333,
500000000000000000000000000000000008000000000000,
500000000000000000000000000000000008000000000000,
34,
600000000000000000000000000008000000300000000000,//181
#GOGOEND
10101122,
10221120,
10101122,
10221120,
10101122,
10221120,
3232,
30443000,//189
#GOGOSTART
10120212,
1212,
10120220,
333333,
500000000000000000000000000000000008000000000000,
500000000000000000000000000000000008000000000000,
34,
600000000000000000000000000008000000300000000000,//197
#GOGOEND
0500,
,
000000000008000000000000000000000000000000000000,
#END
COURSE:Normal
LEVEL:6
BALLOON:4,5,9
#START
1,
2022,
22,
22,
1,
22,
2,
3,
2,
,
10010010,
01001010,
00100100,
10010100,
10010010,
01001010,
00100100,
2220,
11,
1120,
11,
1120,
1111,
11101110,
2,
70000840,
10001110,
10102220,
10001110,
10102220,
10001110,
10102220,
1122,
500000000000000000000000000000000008000000000000,
10001110,
10102220,
10001110,
10102220,
10101110,
20202220,
10102220,
7008,
#BPMCHANGE 96
#MEASURE 2/4
1,
,
2,
,
1,
,
2,
,
1,
2,
1,
2,
1,
1,
1,
1,
#BPMCHANGE 192
#MEASURE 4/4
32,
10101110,
32,
10102220,
3011,
3022,
3232,
3340,
#BPMCHANGE 384
#MEASURE 1/8
5,
,
,
,
,
,
,
,
,
,
,
,
,
,
,
,
,
,
,
,
,
,
,
,
,
,
,
,
,
,
,
,
,
,
,
,
,
,
,
,
,
,
,
,
,
,
,
,
,
,
,
,
,
,
,
,
,
,
,
,
,
,
,
,
,
,
,
,
,
,
,
,
,
,
,
,
,
,
,
,
,
,
,
,
,
,
,
,
,
,
,
,
,
,
,
,
#BPMCHANGE 96
#SCROLL 4
080000,
#MEASURE 3/4
#BPMCHANGE 192
#SCROLL 1
7,
#MEASURE 4/4
0008,//165
#GOGOSTART
10110010,
1122,
10110010,
2220,
10110010,
10102220,
3360,
000000000000000000000000000000000008000000000000,//173
#GOGOEND
10//174
#GOGOSTART
110010,
1122,
10110110,
44,
500000000000000000000000000000000008000000000000,
500000000000000000000000000000000008000000000000,
34,
600000000000000000000000000000000008000000000000,//181
#GOGOEND
10001120,
10102220,
10001120,
10102220,
10001120,
10002220,
3232,
3330,//189
#GOGOSTART
10110010,
1122,
10110110,
44,
500000000000000000000000000000000008000000000000,
500000000000000000000000000000000008000000000000,
34,
600000000000000000000000000000000008000000000000,//197
#GOGOEND
0500,
,
000000000008000000000000000000000000000000000000,
#END
COURSE:Easy
LEVEL:4
BALLOON:4,4
#START
1,
,
,
,
1,
22,
2,
3,
,
,
10010010,
01,
00100100,
1,
10010010,
01,
00100100,
7008,
11,
12,
11,
12,
1110,
1111,
2,
7008,
1011,
12,
1011,
12,
1011,
12,
33,
600000000000000000000000000008000000000000000000,
1011,
12,
1011,
12,
1011,
1022,
33,
3,
#BPMCHANGE 96
#MEASURE 2/4
1,
,
2,
,
1,
,
2,
,
1,
,
1,
,
1,
1,
1,
1,
#BPMCHANGE 192
#MEASURE 4/4
32,
1110,
32,
1110,
32,
32,
33,
3330,
#BPMCHANGE 384
#MEASURE 1/8
5,
,
,
,
,
,
,
,
,
,
,
,
,
,
,
,
,
,
,
,
,
,
,
,
,
,
,
,
,
,
,
,
,
,
,
,
,
,
,
,
,
,
,
,
,
,
,
,
,
,
,
,
,
,
,
,
,
,
,
,
,
,
,
,
,
,
,
,
,
,
,
,
,
,
,
,
,
,
,
,
,
,
,
,
,
,
,
,
,
,
,
,
,
,
,
,
#BPMCHANGE 96
#SCROLL 4
080000,
#MEASURE 3/4
#BPMCHANGE 192
#SCROLL 1
,
#MEASURE 4/4
,//165
#GOGOSTART
1101,
1120,
1101,
2220,
1101,
1120,
36,
000000000000000000000000000008000000000000000000,//173
#GOGOEND
1//174
#GOGOSTART
101,
1120,
30030000,
44,
500000000000000000000000000000000008000000000000,
500000000000000000000000000008000000000000000000,
34,
600000000000000000000000000008000000000000000000,//181
#GOGOEND
1011,
12,
1011,
12,
1011,
1022,
33,
3330,//189
#GOGOSTART
1101,
120,
30030000,
44,
500000000000000000000000000000000008000000000000,
500000000000000000000000000008000000000000000000,
34,
600000000000000000000000000008000000000000000000,//197
#GOGOEND
0500,
,
000000000008000000000000000000000000000000000000,
#END