Files
TJA-by-song-no/tja/889.tja
2026-03-04 23:59:27 +09:00

522 lines
5.2 KiB
Plaintext

//TJADB Project
TITLE:via lactea
TITLEJA:via lactea
SUBTITLE:--EAjRock feat. Setsunann (Harmonic Reflection)
SUBTITLEJA:feat.薛南
BPM:172
WAVE:via lactea.ogg
OFFSET:-1.518
DEMOSTART:55.035
//shinuchi: 6310/2880/2190/1540
COURSE:Oni
LEVEL:7
BALLOON:
SCOREINIT:460,1690
SCOREDIFF:125
#START
0,
0,
0,
#GOGOSTART
30002203,
00221211,
3002203000102020,
3020203000300011, //7
1121,
2000100020001022,
1121,
2000102010221011,
1010101111101010,
1111101111102220,
2211102211102020,
3000202000112000, //15
#GOGOEND
21121121,
12112120,
21121121,
12112122,
41141141,
14114141,
41141140,
1111111022221111, //23
10121212,
1000102000200022,
10120002,
1020002000222020,
10121212,
1000102000200022,
10120002,
1020002000112020, //31
10002001,
10120202,
1000000000002011,
1000101120200010,
30110002,
300000100100101010100300,
0010111110111030,
0000001120200030, //39
#GOGOSTART
01201121,
11201121,
01201121,
1010200010102022,
10201121,
0010202000222220,
3002203000101020,
3020203000302022, //47
10201121,
11201121,
10201120,
1000201000112011,
21121121,
21121121,
21121222,
3000202220101110, //55
#GOGOEND
30030012,
31130012,
42240012,
322322,
500000000000000000000008000000000000100000200000,
12020202,
3011111111111111,
1122112211222220,
02,
22,
02,
20004403, //67
#GOGOSTART
01201121,
0010202000222220,
3002203000102020,
3020203000302022,
10201121,
11201121,
10201120,
1000201000112011,
21121121,
21121121,
21121222,
3000202000112010, //79
#GOGOEND
21121121,
12112121,
21121121,
1020101120112210,
4001104001104001,
1040011040401040,
1110111011101111,
1011111040404040,
0,
0,
0, //90
#END
COURSE:Hard
LEVEL:6
BALLOON:
SCOREINIT:530,2420
SCOREDIFF:148
#START
0,
0,
0,
#GOGOSTART
30002203,
00220200,
30230002,
3000103000300011, //7
1212,
1000200010002011,
1212,
10210121,
30110021,
30010022,
500000000000000000000008000000000000200000200000,
3000202000222000, //15
#GOGOEND
21121020,
12112020,
21121020,
12112022,
21121020,
12112020,
21121020,
12112022, //23
10121210,
10120202,
10220001,
11020202,
10121210,
10120202,
10220001,
11020222, //31
12,
10120202,
1002,
10120202,
30110002,
30110105,
000000000000000000000000000000000000000008000000,
00022203, //39
#GOGOSTART
01201120,
11201021,
01201120,
1010200010102011,
10201121,
0010202000222000,
30230002,
3000103000300011, //47
10201120,
11201121,
10201120,
10210121,
30110021,
30010022,
500000000000000000000008000000000000200000200000,
30220220, //55
#GOGOEND
30030022,
30130011,
42240022,
322322,
500000000000000000000008000000000000100000100000,
12020205,
000000000000000000000000000000000000000000000008,
00022202,
02,
22,
02,
20004401, //67
#GOGOSTART
01201121,
0010202000222000,
30230002,
3000103000300011,
10201120,
11201121,
10201120,
10210121,
30110021,
30010022,
500000000000000000000008000000000000200000200000,
30220202, //79
#GOGOEND
21121020,
12112020,
21121020,
12112022,
21121020,
12112020,
1110101011101010,
1011100040404040,
0,
0,
0, //90
#END
COURSE:Normal
LEVEL:5
BALLOON:
SCOREINIT:520,3250
SCOREDIFF:155
#START
0,
0,
0,
#GOGOSTART
30001101,
00110100,
30030000,
40040404, //7
01,
10002011,
11,
10020200,
30110000,
30010011,
500000000000000000000008000000000000100000100000,
10220220, //15
#GOGOEND
10121020,
12012020,
10121020,
12012020,
10121020,
12012020,
10121020,
12012020, //23
00111010,
10220200,
10110000,
11020202,
00111010,
10220200,
10110000,
11020222, //31
01,
20220202,
0001,
20220200,
30110000,
30110105,
000000000000000000000000000000000000000008000000,
00002203, //39
#GOGOSTART
0212,
10201021,
01201020,
10201021,
10201101,
00220200,
30330000,
30040404, //47
0212,
10201021,
1212,
10020200,
30110000,
30010011,
500000000000000000000008000000000000100000100000,
10220220, //55
#GOGOEND
10010020,
10110020,
11110020,
34,
3001,
11010105,
000000000000000000000000000000000000000000000008,
00022202,
02,
22,
02,
20004001, //67
#GOGOSTART
00201101,
00220200,
30330000,
30040404,
0212,
10201021,
1212,
10020200,
30110000,
30010011,
500000000000000000000008000000000000100000100000,
10220200, //79
#GOGOEND
10121020,
12012020,
10121020,
12012020,
10121020,
12012020,
10121012,
10104444,
0,
0,
0, //90
#END
COURSE:Easy
LEVEL:3
BALLOON:
SCOREINIT:680,7810
SCOREDIFF:285
#START
0,
0,
0,
#GOGOSTART
30000003,
0,
3,
4, //7
01,
12,
01,
1,
30030000,
30030000,
600000000000000000000000000000000000000000000008,
0, //15
#GOGOEND
1110,
12,
1110,
12,
1110,
12,
1110,
12, //23
0110,
1,
10010000,
20020000,
0110,
1,
10010000,
20020000, //31
01,
1,
0001,
1,
3,
30000006,
000000000000000000000000000000000000000008000000,
00001101, //39
#GOGOSTART
01,
12,
01,
12,
00001005,
000000000000000000000000000008000000000000000000,
30030000,
600000000000000000000000000000000000000008000000, //47
01,
12,
01,
1,
30030000,
30030000,
600000000000000000000000000000000000000000000008,
0, //55
#GOGOEND
10010000,
10010000,
10010000,
500000000000000000000000000000000000000000000008,
0,
20000005,
000000000000000000000000000000000000000000000008,
00002202,
01,
11,
01,
13, //67
#GOGOSTART
00001005,
000000000000000000000008000000000000000000000000,
30030000,
600000000000000000000000000000000000000008000000,
01,
12,
01,
10010000,
30030000,
30030000,
600000000000000000000000000000000000000000000008,
0, //79
#GOGOEND
1110,
12,
1110,
12,
1110,
12,
1111,
10003333,
0,
0,
0, //90
#END