Files
TJA-by-song-no/tja/97.tja
2026-03-04 23:59:27 +09:00

551 lines
7.3 KiB
Plaintext

//TJADB Project
TITLE:Toccata and Fugue and Rock
TITLEJA:トッカータとフーガとロック
SUBTITLE:--Yuuji Masubuchi
BPM:143
WAVE:Toccata and Fugue and Rock.ogg
OFFSET:-1.974
DEMOSTART:0.294
COURSE:Oni
LEVEL:9
BALLOON:38,18
SCOREINIT:430
SCOREDIFF:80
#START
#MEASURE 2/4
00222210,
#MEASURE 4/4
3,
,
#MEASURE 2/4
0111,
#MEASURE 4/4
3,
1110000000000000,
#MEASURE 2/4
00222210,
#MEASURE 4/4
3,
5,
0000000000000000000000000000000000000000000000000000000800000000,
7,
0008,
3340,
00000001,
102010102010102010100100,
102010102010102010100100,
121121121100,
00000001,
102010102010102010100100,
102010102010102010100100,
121121121100,
00000002,
#MEASURE 7/8
100020001000100020001000100200100100200100,
100020001000100020001000100200100100200100,
100020001000100100100200200010001000200100,
#MEASURE 3/4
112112112112,
101202101202,
#MEASURE 4/4
10002001,
300000000000000030000000000000006000000000000000000000000000000000080000000000000000000000000000,
100000000100200200100100200100200100200020002000,
1000001002222203,
0001200010111202,
112112100112112100300000,//33
#GOGOSTART
1011101110111011,
1011101110111011,
1011101110111011,
1011211110111011,
1011101110111011,
1010222010122010,
2010111011011010,
1010101010122220,//40
#GOGOEND
2220111022201111,
141414,
#MEASURE 2/4
20222022,
#MEASURE 4/4
2222111122221111,
141414,
1012010111201120,
2121220211111100,//48
#GOGOSTART
1011201110112011,
1011201110112011,
1011201110112011,
1011211210112112,
1011211210112222,
1022201110122210,//54
#GOGOEND
2022202220202220,
2220202220202220,
2020202220202220,
2220200210103000,//58
#GOGOSTART
1010222010122011,
12122330,
1010222011101022,
1010011010122010,//62
#GOGOEND
30000111,
300000000000000011200000,
1022202220103000,
1010101110101011,
1010101110121012,
1010101110101011,
1010101112102022,
1112201112201112,
#MEASURE 2/4
20111110,
#MEASURE 3/4
111200111200,
111222111100,
#MEASURE 4/4
7008,
100222200100222222111111,//73
#GOGOSTART
1011201110112011,
1011201110112011,
1011201110112011,
0110222101103000,
1011201110112011,
1011201110112011,
1011201110112011,
1001001221122222,
#MEASURE 7/8
10211201120120,
10211201120120,
10211201120120,
#MEASURE 6/8
102102102102,
112112112112,//88
#GOGOEND
#MEASURE 4/4
1000001120002010,
3003003022212100,
2112211221122112,
0101000101000003,
,
#END
COURSE:Hard
LEVEL:8
BALLOON:30,15
SCOREINIT:370
SCOREDIFF:90
#START
#MEASURE 2/4
00222220,
#MEASURE 4/4
3,
,
#MEASURE 2/4
0111,
#MEASURE 4/4
3,
,
#MEASURE 2/4
00222220,
#MEASURE 4/4
3,
5,
0000000000000000000000000000000000000000000000000000000800000000,
7,
0008,
3340,
,
121121121100,
121121121100,
121121121100,
,
121121121100,
121121121100,
121121121100,
,
#MEASURE 7/8
100010001000100000000000200000000200000000,
100010001000100000000000200000000200000000,
100010001000100000000000200020002000200000,
#MEASURE 3/4
110110220220,
101102201100,
#MEASURE 4/4
12,
300000000000000030000000000000006000000000000000000000000000000000080000000000000000000000000000,
100000000100100000000000100100100100200020002000,
1000001000000003,
0001100010112000,
5000000000000000000000000000000000000008000000003000000000000000,//33
#GOGOSTART
1011101110111011,
1011101110111011,
1011101110111011,
1011101110222011,
1022201110222011,
1010222010102010,
2010111011101000,
11113000,//40
#GOGOEND
0000222200002222,
121212,
#MEASURE 2/4
3,
#MEASURE 4/4
0000222200002222,
121212,
3001010111102220,
1010110100000300,//48
#GOGOSTART
1011201110112011,
1011201110112011,
1011201110112011,
1011202210112022,
1011202210112022,
1022201110111110,//54
#GOGOEND
0020002200200022,
0020002200220022,
0020002200200022,
0020002210103000,//58
#GOGOSTART
1010222010112020,
12122330,
1010222010112020,
1010202010112010,//62
#GOGOEND
30000111,
3004,
3000300020101110,
1010101110101011,
1010101110222010,
1010101110101011,
1010101110222010,
1110201110201110,
#MEASURE 2/4
20111020,
#MEASURE 3/4
111200111200,
1111,
#MEASURE 4/4
7008,
1022201022221000,//73
#GOGOSTART
1011101110111011,
1011101110111011,
1011101110111010,
0110220101103000,
1011101110111011,
1011101110111011,
1011101110111010,
1001001020020020,
#MEASURE 7/8
10011000110220,
10011000110220,
10011000110220,
#MEASURE 6/8
1111,
3333,//88
#GOGOEND
#MEASURE 4/4
1022,
333000,
2101210121012000,
0101000101000003,
,
#END
COURSE:Normal
LEVEL:7
BALLOON:25,10
SCOREINIT:570
SCOREDIFF:130
#START
#MEASURE 2/4
,
#MEASURE 4/4
3,
,
#MEASURE 2/4
,
#MEASURE 4/4
3,
,
#MEASURE 2/4
,
#MEASURE 4/4
3,
5,
0000000000000000000000000000000000000000000000000000000800000000,
7,
0008,
3340,
,
10101022,
10101022,
1112,
,
10101022,
10101022,
1112,
,
#MEASURE 7/8
1020100,
1020100,
1020100,
#MEASURE 3/4
11,
1111,
#MEASURE 4/4
12,
300000000000000030000000000000006000000000000000000000000000000000080000000000000000000000000000,
12,
10010003,
,
5000000000000000000000000000000800000000000000003000000000000000,//33
#GOGOSTART
11101110,
11101110,
11101110,
11102220,
11102220,
3011,
11201120,
11113000,//40
#GOGOEND
,
121212,
#MEASURE 2/4
3,
#MEASURE 4/4
,
121212,
35,
0000000000000000000000000000000800000000000000000000300000000000,//48
#GOGOSTART
11101110,
11101110,
11101110,
11102220,
11102220,
11113000,//54
#GOGOEND
0202,
0202,
0202,
00201130,//58
#GOGOSTART
12121212,
12121110,
12121110,
12121110,//62
#GOGOEND
30000111,
1004,
3333,
11101110,
1010100011101000,
11101110,
1010100011101000,
1221,
#MEASURE 2/4
22,
#MEASURE 3/4
11,
1111,
#MEASURE 4/4
7008,
3,//73
#GOGOSTART
1011100010111000,
1011100010111000,
1011100010111000,
0000000300000000,
1011100010111000,
1011100010111000,
1011100010111000,
2002002000000000,
#MEASURE 7/8
10011000100000,
10011000200000,
10011000100000,
#MEASURE 6/8
11,
1111,//88
#GOGOEND
#MEASURE 4/4
3022,
333000,
3344,
0101000101000003,
,
#END
COURSE:Easy
LEVEL:5
BALLOON:20,5
SCOREINIT:570
SCOREDIFF:140
#START
#MEASURE 2/4
,
#MEASURE 4/4
3,
,
#MEASURE 2/4
,
#MEASURE 4/4
3,
,
#MEASURE 2/4
,
#MEASURE 4/4
3,
5,
0000000000000000000000000000000000000000000000000000000800000000,
7,
0008,
3340,
,
1110,
1110,
1112,
,
1110,
1110,
1112,
,
#MEASURE 7/8
1000200,
1000200,
1000200,
#MEASURE 3/4
12,
12,
#MEASURE 4/4
1,
300000000000000030000000000000006000000000000000000000000000000000080000000000000000000000000000,
1,
1000001000000003,
,
5000000000000000000000000000000800000000000000003000000000000000,//33
#GOGOSTART
0101,
0101,
0101,
0111,
0111,
3022,
2022,
3,//40
#GOGOEND
,
111,
#MEASURE 2/4
3,
#MEASURE 4/4
,
111,
35,
0000000000000000000000000000000800000000000000000000300000000000,//48
#GOGOSTART
0101,
0101,
0101,
0111,
0111,
3,//54
#GOGOEND
0202,
0202,
0202,
0203,//58
#GOGOSTART
1110,
10001110,
10001110,
1011,//62
#GOGOEND
3,
3004,
3,
1110,
10101110,
1110,
10101110,
0202,
#MEASURE 2/4
02,
#MEASURE 3/4
11,
1,
#MEASURE 4/4
7008,
3,//73
#GOGOSTART
10001100,
10001100,
10001100,
3,
10001100,
10001100,
10001100,
3,
#MEASURE 7/8
1000200,
1000200,
1000200,
#MEASURE 6/8
11,
11,//88
#GOGOEND
#MEASURE 4/4
3,
111000,
3344,
3000000000000003,
,
#END